74
PUNTOS
Calificar
CALIFICA
Calificar
Califica y/o escribe un comentario sobre la película.
Comentarios en el foroFORO

Demain tout commence (2016)

Samuel vive la vida sin responsabilidades en la playa en el sur de Francia. Hasta que un día, una de sus antiguos amores le deja en los brazos a un bebé de pocos meses, Gloria: su hija. Incapaz de cuidar de un bebé y decidido a devolverle la niña a su madre, Samuel se va a a Londres para tratar de encontrarla pero no tiene éxito. Remake de 'No se aceptan devoluciones' (2013), la película mexicana más exitosa de la historia.
Director Hugo Gélin
Actores Omar Sy, Clémence Poésy, Antoine Bertrand
Duración 118 min
País France, UK
Streaming (Servicio externo)
Grupo: UTT
Versión: DVDRip XviD
Tamaño: 700 MB
Demain.Tout.Commence.2016.FRENCH.DVDRip.XviD-UTT

General
Complete name                  : Demain.Tout.Commence.2016.FRENCH.DVDRip.XviD-UTT.avi
Format                         : AVI
Format/Info                    : Audio Video Interleave
File size                      : 701 MiB
Duration                       : 1h 53mn
Overall bit rate               : 866 Kbps
Writing application            : MEncoder 1.0rc2-4.2.4
Writing library                : MPlayer

Video
ID                             : 0
Format                         : MPEG-4 Visual
Format profile                 : Simple@L3
Format settings, BVOP          : No
Format settings, QPel          : No
Format settings, GMC           : No warppoints
Format settings, Matrix        : Default (H.263)
Codec ID                       : XVID
Codec ID/Hint                  : XviD
Duration                       : 1h 53mn
Bit rate                       : 733 Kbps
Width                          : 640 pixels
Height                         : 272 pixels
Display aspect ratio           : 2.35:1
Frame rate                     : 25.000 fps
Color space                    : YUV
Chroma subsampling             : 4:2:0
Bit depth                      : 8 bits
Scan type                      : Progressive
Compression mode               : Lossy
Bits/(Pixel*Frame)             : 0.168
Stream size                    : 593 MiB (85%)
Writing library                : XviD 1.1.2 (UTC 2006-11-01)

Audio
ID                             : 1
Format                         : MPEG Audio
Format version                 : Version 1
Format profile                 : Layer 3
Mode                           : Joint stereo
Mode extension                 : MS Stereo
Codec ID                       : 55
Codec ID/Hint                  : MP3
Duration                       : 1h 53mn
Bit rate mode                  : Constant
Bit rate                       : 128 Kbps
Channel(s)                     : 2 channels
Sampling rate                  : 48.0 KHz
Compression mode               : Lossy
Delay relative to video        : 8ms
Stream size                    : 104 MiB (15%)
Alignment                      : Split accross interleaves
Interleave, duration           : 500 ms (12.50 video frames)
Interleave, preload duration   : 1000 ms

Subtitulos

Grupo: PKPTRS
Versión: BDRip x264 720p DTS
Tamaño: 5.5 GB
Demain.Tout.Commence.2016.FRENCH.720p.BluRay.x264-PKPTRS

...1280*536
...Region B 
...Audio FR 
...Subtitles FRF
...http://www.imdb.com/title/tt5078204

Subtitulos

Grupo: PKPTRS
Versión: BDRip x264 1080p DTS
Tamaño: 7.9 GB
Demain.Tout.Commence.2016.FRENCH.1080p.BluRay.DTS.x264-PKPTRS

...1920*800
...Region B 
...Audio FR 
...Subtitles FRF
...http://www.imdb.com/title/tt5078204

Subtitulos

Trailer