63
PUNTOS
Calificar
CALIFICA
Calificar
Califica y/o escribe un comentario sobre la película.
Comentarios en el foroFORO

Message from the King (2016)

Narra la historia de un tipo misterioso llamado Jacob King, que llega a Los Ángeles para investigar la desaparición de su hermana y se topa con una macabra trama criminal en los submundos de la ciudad.
Director Fabrice du Welz
Actores Teresa Palmer, Luke Evans, Tom Felton
Duración 102 min
País USA, UK, Belgium, France
Streaming (Servicio externo)
Grupo: STRiFE
Versión: WEBRip x264 720p AC3
Tamaño: 3.2 GB
Message.from.the.King.2016.720p.WEBRip.x264-STRiFE

Video
ID                                       : 1
Format                                   : AVC
Format/Info                              : Advanced Video Codec
Format profile                           : High@L4.1
Format settings, CABAC                   : Yes
Format settings, ReFrames                : 5 frames
Codec ID                                 : V_MPEG4/ISO/AVC
Duration                                 : 1h 43mn
Bit rate                                 : 4 098 Kbps
Width                                    : 1 280 pixels
Height                                   : 534 pixels
Display aspect ratio                     : 2.40:1
Frame rate mode                          : Constant
Frame rate                               : 23.976 (24000/1001) fps
Color space                              : YUV
Chroma subsampling                       : 4:2:0
Bit depth                                : 8 bits
Scan type                                : Progressive
Bits/(Pixel*Frame)                       : 0.250
Stream size                              : 2.95 GiB (91%)
Writing library                          : x264 core 152 r2851 ba24899
Encoding settings                        : cabac=1 / ref=5 / deblock=1:-3:-3 / analyse=0x3:0x113 / me=umh / subme=8 / psy=1 / psy_rd=1.00:0.15 / mixed_ref=1 / me_range=16 / chroma_me=1 / trellis=2 / 8x8dct=1 / cqm=0 / deadzone=21,11 / fast_pskip=0 / chroma_qp_offset=-2 / threads=12 / lookahead_threads=2 / sliced_threads=0 / nr=0 / decimate=1 / interlaced=0 / bluray_compat=0 / constrained_intra=0 / bframes=3 / b_pyramid=2 / b_adapt=1 / b_bias=0 / direct=3 / weightb=1 / open_gop=0 / weightp=2 / keyint=240 / keyint_min=23 / scenecut=40 / intra_refresh=0 / rc_lookahead=50 / rc=crf / mbtree=1 / crf=18.0 / qcomp=0.60 / qpmin=0 / qpmax=69 / qpstep=4 / ip_ratio=1.40 / aq=3:0.80
Language                                 : English
Default                                  : Yes
Forced                                   : No

Audio
ID                                       : 2
Format                                   : AC-3
Format/Info                              : Audio Coding 3
Mode extension                           : CM (complete main)
Format settings, Endianness              : Big
Codec ID                                 : A_AC3
Duration                                 : 1h 43mn
Bit rate mode                            : Constant
Bit rate                                 : 384 Kbps
Channel(s)                               : 6 channels
Channel positions                        : Front: L C R, Side: L R, LFE
Sampling rate                            : 48.0 KHz
Frame rate                               : 31.250 fps (1536 spf)
Compression mode                         : Lossy
Stream size                              : 283 MiB (9%)
Language                                 : English
Default                                  : Yes
Forced                                   : No

Text #1
ID                                       : 3
Format                                   : UTF-8
Codec ID                                 : S_TEXT/UTF8
Codec ID/Info                            : UTF-8 Plain Text
Duration                                 : 1h 33mn
Bit rate                                 : 48 bps
Count of elements                        : 1038
Stream size                              : 33.1 KiB (0%)
Language                                 : English
Default                                  : No
Forced                                   : No

Text #2
ID                                       : 4
Format                                   : UTF-8
Codec ID                                 : S_TEXT/UTF8
Codec ID/Info                            : UTF-8 Plain Text
Duration                                 : 1h 41mn
Bit rate                                 : 39 bps
Count of elements                        : 863
Stream size                              : 29.3 KiB (0%)
Language                                 : German
Default                                  : No
Forced                                   : No

Text #3
ID                                       : 5
Format                                   : UTF-8
Codec ID                                 : S_TEXT/UTF8
Codec ID/Info                            : UTF-8 Plain Text
Duration                                 : 1h 41mn
Bit rate                                 : 39 bps
Count of elements                        : 832
Stream size                              : 29.5 KiB (0%)
Language                                 : Italian
Default                                  : No
Forced                                   : No

Text #4
ID                                       : 6
Format                                   : UTF-8
Codec ID                                 : S_TEXT/UTF8
Codec ID/Info                            : UTF-8 Plain Text
Duration                                 : 1h 37mn
Bit rate                                 : 37 bps
Count of elements                        : 864
Stream size                              : 27.0 KiB (0%)
Title                                    : Brazilian
Language                                 : Portuguese
Default                                  : No
Forced                                   : No

Text #5
ID                                       : 7
Format                                   : UTF-8
Codec ID                                 : S_TEXT/UTF8
Codec ID/Info                            : UTF-8 Plain Text
Duration                                 : 1h 41mn
Bit rate                                 : 32 bps
Count of elements                        : 832
Stream size                              : 24.2 KiB (0%)
Language                                 : Polish
Default                                  : No
Forced                                   : No

Text #6
ID                                       : 8
Format                                   : UTF-8
Codec ID                                 : S_TEXT/UTF8
Codec ID/Info                            : UTF-8 Plain Text
Duration                                 : 1h 41mn
Bit rate                                 : 36 bps
Count of elements                        : 880
Stream size                              : 27.5 KiB (0%)
Language                                 : Spanish
Default                                  : No
Forced                                   : No

Subtitulos

Grupo: STRiFE
Versión: WEBRip x264 1080p AC3
Tamaño: 8.7 GB
Message.from.the.King.2016.1080p.WEBRip.x264-STRiFE

Video
ID                                       : 1
Format                                   : AVC
Format/Info                              : Advanced Video Codec
Format profile                           : High@L4.1
Format settings, CABAC                   : Yes
Format settings, ReFrames                : 5 frames
Codec ID                                 : V_MPEG4/ISO/AVC
Duration                                 : 1h 43mn
Bit rate                                 : 11.7 Mbps
Width                                    : 1 920 pixels
Height                                   : 802 pixels
Display aspect ratio                     : 2.40:1
Frame rate mode                          : Constant
Frame rate                               : 23.976 (24000/1001) fps
Color space                              : YUV
Chroma subsampling                       : 4:2:0
Bit depth                                : 8 bits
Scan type                                : Progressive
Bits/(Pixel*Frame)                       : 0.317
Stream size                              : 8.42 GiB (97%)
Writing library                          : x264 core 152 r2851 ba24899
Encoding settings                        : cabac=1 / ref=5 / deblock=1:-3:-3 / analyse=0x3:0x113 / me=hex / subme=8 / psy=1 / psy_rd=1.00:0.15 / mixed_ref=1 / me_range=16 / chroma_me=1 / trellis=2 / 8x8dct=1 / cqm=0 / deadzone=21,11 / fast_pskip=0 / chroma_qp_offset=-2 / threads=12 / lookahead_threads=2 / sliced_threads=0 / nr=0 / decimate=1 / interlaced=0 / bluray_compat=0 / constrained_intra=0 / bframes=3 / b_pyramid=2 / b_adapt=1 / b_bias=0 / direct=3 / weightb=1 / open_gop=0 / weightp=2 / keyint=240 / keyint_min=23 / scenecut=40 / intra_refresh=0 / rc_lookahead=50 / rc=crf / mbtree=1 / crf=17.0 / qcomp=0.60 / qpmin=0 / qpmax=69 / qpstep=4 / ip_ratio=1.40 / aq=3:0.80
Language                                 : English
Default                                  : Yes
Forced                                   : No

Audio
ID                                       : 2
Format                                   : AC-3
Format/Info                              : Audio Coding 3
Mode extension                           : CM (complete main)
Format settings, Endianness              : Big
Codec ID                                 : A_AC3
Duration                                 : 1h 43mn
Bit rate mode                            : Constant
Bit rate                                 : 384 Kbps
Channel(s)                               : 6 channels
Channel positions                        : Front: L C R, Side: L R, LFE
Sampling rate                            : 48.0 KHz
Frame rate                               : 31.250 fps (1536 spf)
Compression mode                         : Lossy
Stream size                              : 283 MiB (3%)
Language                                 : English
Default                                  : Yes
Forced                                   : No

Text #1
ID                                       : 3
Format                                   : UTF-8
Codec ID                                 : S_TEXT/UTF8
Codec ID/Info                            : UTF-8 Plain Text
Duration                                 : 1h 33mn
Bit rate                                 : 48 bps
Count of elements                        : 1038
Stream size                              : 33.1 KiB (0%)
Language                                 : English
Default                                  : No
Forced                                   : No

Text #2
ID                                       : 4
Format                                   : UTF-8
Codec ID                                 : S_TEXT/UTF8
Codec ID/Info                            : UTF-8 Plain Text
Duration                                 : 1h 41mn
Bit rate                                 : 39 bps
Count of elements                        : 863
Stream size                              : 29.3 KiB (0%)
Language                                 : German
Default                                  : No
Forced                                   : No

Text #3
ID                                       : 5
Format                                   : UTF-8
Codec ID                                 : S_TEXT/UTF8
Codec ID/Info                            : UTF-8 Plain Text
Duration                                 : 1h 41mn
Bit rate                                 : 39 bps
Count of elements                        : 832
Stream size                              : 29.5 KiB (0%)
Language                                 : Italian
Default                                  : No
Forced                                   : No

Text #4
ID                                       : 6
Format                                   : UTF-8
Codec ID                                 : S_TEXT/UTF8
Codec ID/Info                            : UTF-8 Plain Text
Duration                                 : 1h 37mn
Bit rate                                 : 37 bps
Count of elements                        : 864
Stream size                              : 27.0 KiB (0%)
Title                                    : Brazilian
Language                                 : Portuguese
Default                                  : No
Forced                                   : No

Text #5
ID                                       : 7
Format                                   : UTF-8
Codec ID                                 : S_TEXT/UTF8
Codec ID/Info                            : UTF-8 Plain Text
Duration                                 : 1h 41mn
Bit rate                                 : 32 bps
Count of elements                        : 832
Stream size                              : 24.2 KiB (0%)
Language                                 : Polish
Default                                  : No
Forced                                   : No

Text #6
ID                                       : 8
Format                                   : UTF-8
Codec ID                                 : S_TEXT/UTF8
Codec ID/Info                            : UTF-8 Plain Text
Duration                                 : 1h 41mn
Bit rate                                 : 36 bps
Count of elements                        : 880
Stream size                              : 27.5 KiB (0%)
Language                                 : Spanish
Default                                  : No
Forced                                   : No

Subtitulos

Grupo: PSYCHD
Versión: BDRip x264 AAC
Tamaño: 600 MB
Message.from.the.King.2016.BDRip.x264-PSYCHD

Date..............: 09/2017
IMDB..............: http://www.imdb.com/title/tt1712192/
Ratings...........: 6.4/10   3,782 votes
Runtime...........: 01:42:34
Video.............: 720x302 / 24.000fps / CRF 19

Subtitulos

Grupo: PSYCHD
Versión: BDRip x264 720p DTS
Tamaño: 4.4 GB
Message.from.the.King.2016.720p.BluRay.x264-PSYCHD

Date..............: 09/2017
IMDB..............: http://www.imdb.com/title/tt1712192/
Ratings...........: 6.4/10   3,782 votes
Runtime...........: 01:42:34
Video.............: 1280x536 / 24.000fps
Audio.............: DTS 5.1 1509kbps

Subtitulos

Grupo: PSYCHD
Versión: BDRip x264 1080p DTS
Tamaño: 7.6 GB
Message.from.the.King.2016.1080p.BluRay.x264-PSYCHD

Date..............: 09/2017
IMDB..............: http://www.imdb.com/title/tt1712192/
Ratings...........: 6.4/10   3,782 votes
Runtime...........: 01:42:34
Video.............: 1920x808 / 24.000fps
Audio.............: DTS 5.1 1509kbps

Subtitulos