59
PUNTOS
Calificar
CALIFICA
Calificar
Califica y/o escribe un comentario sobre la película.
Comentarios en el foroFORO

Le secret de la chambre noire (2016)

Jean empieza a trabajar como ayudante de un fotógrafo obsesionado con el arte arcaico de los daguerrotipos y atormentado por la muerte de su esposa, cuya presencia aún se nota entre las sombras. La primera película que Kiyoshi Kurosawa realiza fuera de Japón mezcla romanticismo e intriga, prolongando con naturalidad la concepción que el cineasta tiene de lo fantasmagórico.
Director Kiyoshi Kurosawa
Actores Tahar Rahim, Constance Rousseau, Olivier Gourmet
Duración 131 min
País France, Belgium, Japan
Streaming (Servicio externo)
Grupo: EXTREME
Versión: BDRip XviD
Tamaño: 1.4 GB
General
Complete name                            : Le.Secret.de.la.Chambre.Noire.2016.FRENCH.BDRip.XviD-EXTREME.avi
Format                                   : AVI
Format/Info                              : Audio Video Interleave
File size                                : 1.37 GiB
Duration                                 : 2h 6mn
Overall bit rate                         : 1 549 Kbps

Video
ID                                       : 0
Format                                   : MPEG-4 Visual
Format profile                           : Advanced Simple@L5
Format settings, BVOP                    : 1
Format settings, QPel                    : No
Format settings, GMC                     : No warppoints
Format settings, Matrix                  : Default (H.263)
Codec ID                                 : XVID
Codec ID/Hint                            : XviD
Duration                                 : 2h 6mn
Bit rate                                 : 1 415 Kbps
Width                                    : 720 pixels
Height                                   : 304 pixels
Display aspect ratio                     : 2.35:1
Frame rate                               : 25.000 fps
Color space                              : YUV
Chroma subsampling                       : 4:2:0
Bit depth                                : 8 bits
Scan type                                : Progressive
Compression mode                         : Lossy
Bits/(Pixel*Frame)                       : 0.259
Stream size                              : 1.25 GiB (91%)
Writing library                          : XviD 67

Audio
ID                                       : 1
Format                                   : MPEG Audio
Format version                           : Version 1
Format profile                           : Layer 3
Mode                                     : Joint stereo
Codec ID                                 : 55
Codec ID/Hint                            : MP3
Duration                                 : 2h 6mn
Bit rate mode                            : Constant
Bit rate                                 : 128 Kbps
Channel(s)                               : 2 channels
Sampling rate                            : 48.0 KHz
Compression mode                         : Lossy
Stream size                              : 116 MiB (8%)
Alignment                                : Aligned on interleaves
Interleave, duration                     : 160 ms (4.00 video frames)
Interleave, preload duration             : 216 ms
Title                                    : m
Writing library                          : LAME3.99r
Encoding settings                        : -m j -V 4 -q 2 -lowpass 17 -b 128

Subtitulos

Grupo: EXTREME
Versión: BDRip x264
Tamaño: 575 MB
 

Subtitulos

Trailer