50
PUNTOS
Calificar
CALIFICA
Calificar
Califica y/o escribe un comentario sobre la película.
Comentarios en el foroFORO

The Crucifixion (2017)

Cuando un sacerdote es encarcelado en Rumanía acusado de asesinato de una monja a la que realizaba un exorcismo, la periodista Nicole Rawlins investiga si el asesinato fue a una persona mentalmente enferma o, por el contrario, las acusaciones son falsas y simplemente perdió la batalla contra una presencia demoníaca. Una presencia que ahora podría estar experimentando ella misma.
Director Xavier Gens
Actores Sophie Cookson, Corneliu Ulici, Brittany Ashworth
Duración 90 min
País USA, UK, Romania
Streaming (Servicio externo)
Grupo: FGT
Versión: WEB-DL x264 AAC
Tamaño: 800 MB
The.Crucifixion.2017.WEB-DL.x264-FGT

Video
ID                                       : 1
Format                                   : AVC
Format/Info                              : Advanced Video Codec
Format profile                           : High@L3.1
Format settings, CABAC                   : Yes
Format settings, ReFrames                : 5 frames
Codec ID                                 : avc1
Codec ID/Info                            : Advanced Video Coding
Duration                                 : 1 h 29 min
Bit rate                                 : 1 100 kb/s
Width                                    : 720 pixels
Height                                   : 304 pixels
Display aspect ratio                     : 2.40:1
Original display aspect ratio            : 2.40:1
Frame rate mode                          : Constant
Frame rate                               : 23.976 (24000/1001) FPS
Color space                              : YUV
Chroma subsampling                       : 4:2:0
Bit depth                                : 8 bits
Scan type                                : Progressive
Bits/(Pixel*Frame)                       : 0.210
Stream size                              : 697 MiB (89%)
Title                                    : The.Crucifixion.2017.WEB-DL.x264-FGT
Writing library                          : x264 core 152 r2851M ba24899
Encoding settings                        : cabac=1 / ref=5 / deblock=1:-1:-1 / analyse=0x3:0x113 / me=umh / subme=9 / psy=1 / psy_rd=1.00:0.15 / mixed_ref=1 / me_range=16 / chroma_me=1 / trellis=2 / 8x8dct=1 / cqm=0 / deadzone=21,11 / fast_pskip=1 / chroma_qp_offset=-3 / threads=24 / lookahead_threads=2 / sliced_threads=0 / nr=0 / decimate=1 / interlaced=0 / bluray_compat=0 / constrained_intra=0 / bframes=3 / b_pyramid=2 / b_adapt=2 / b_bias=0 / direct=3 / weightb=1 / open_gop=0 / weightp=2 / keyint=250 / keyint_min=23 / scenecut=40 / intra_refresh=0 / rc_lookahead=50 / rc=abr / mbtree=1 / bitrate=1100 / ratetol=1.0 / qcomp=0.60 / qpmin=0 / qpmax=69 / qpstep=4 / ip_ratio=1.40 / aq=1:1.00
Language                                 : English

Audio
ID                                       : 2
Format                                   : AAC
Format/Info                              : Advanced Audio Codec
Format profile                           : LC
Codec ID                                 : 40
Duration                                 : 1 h 29 min
Bit rate mode                            : Constant
Bit rate                                 : 128 kb/s
Channel(s)                               : 2 channels
Channel positions                        : Front: L R
Sampling rate                            : 48.0 kHz
Frame rate                               : 46.875 FPS (1024 spf)
Compression mode                         : Lossy
Stream size                              : 82.3 MiB (11%)
Title                                    : The.Crucifixion.2017.WEB-DL.x264-FGT
Language                                 : English
Default                                  : Yes
Alternate group                          : 1

Subtitulos

Grupo: RedBlade
Versión: DVDRip x264 AAC
Tamaño: 550 MB
The.Crucifixion.2017.DVDRip.x264-RedBlade

Video: x264 @ 845 kbps 720x304
Audio: AAC @ 128 kbps
Language: English
Subtitles: English  Spanish

Subtitulos

Grupo: PSYCHD
Versión: BDRip x264 720p DTS
Tamaño: 4.4 GB
The.Crucifixion.2017.720p.BluRay.x264-PSYCHD

Date..............: 12/2017
IMDB..............: http://www.imdb.com/title/tt4181782/
Ratings...........: 5.0/10   2,054 votes
Runtime...........: 01:29:54
Video.............: 1280x536 / 23.976fps
Audio.............: DTS 5.1 1509kbps

Subtitulos

Grupo: PSYCHD
Versión: BDRip x264 1080p DTS
Tamaño: 6.6 GB
The.Crucifixion.2017.1080p.BluRay.x264-PSYCHD

Date..............: 12/2017
IMDB..............: http://www.imdb.com/title/tt4181782/
Ratings...........: 5.0/10   2,054 votes
Runtime...........: 01:29:54
Video.............: 1920x808 / 23.976fps
Audio.............: DTS 5.1 1509kbps

Subtitulos

Trailer