67
PUNTOS
Calificar
CALIFICA
Calificar
Califica y/o escribe un comentario sobre la película.
Comentarios en el foroFORO

Eiðurinn (2016)

Un hombre está dispuesto a todo con tal de sacar a su hija del mundo de las drogas y los hurtos, ignorando que el peligro se puede encontrar en lugares totalmente inesperados.
Director Baltasar Kormákur
Actores Hera Hilmar, Baltasar Kormákur, Gísli Örn Garðarsson
Duración 103 min
País Iceland
Streaming (Servicio externo)
Grupo: NoGRP
Versión: BRRip XviD AC3
Tamaño: 1.8 GB
General
Complete name                  : Eiðurinn.2016.BRRip.avi
Format                         : AVI
Format/Info                    : Audio Video Interleave
File size                      : 1.77 GiB
Duration                       : 1h 43mn
Overall bit rate               : 2 440 Kbps
Writing application            : VirtualDubMod 1.5.10.3 | www.virtualdub-fr.org || (build 2550/release)
Writing library                : VirtualDubMod build 2550/release

Video
ID                             : 0
Format                         : MPEG-4 Visual
Format profile                 : Advanced Simple@L5
Format settings, BVOP          : 2
Format settings, QPel          : No
Format settings, GMC           : No warppoints
Format settings, Matrix        : Default (H.263)
Codec ID                       : XVID
Codec ID/Hint                  : XviD
Duration                       : 1h 43mn
Bit rate                       : 2 047 Kbps
Width                          : 720 pixels
Height                         : 304 pixels
Display aspect ratio           : 2.35:1
Frame rate                     : 24.000 fps
Color space                    : YUV
Chroma subsampling             : 4:2:0
Bit depth                      : 8 bits
Scan type                      : Progressive
Compression mode               : Lossy
Bits/(Pixel*Frame)             : 0.390
Stream size                    : 1.49 GiB (84%)
Writing library                : XviD 1.2.1 (UTC 2008-12-04)

Audio
ID                             : 1
Format                         : AC-3
Format/Info                    : Audio Coding 3
Mode extension                 : CM (complete main)
Format settings, Endianness    : Big
Codec ID                       : 2000
Duration                       : 1h 43mn
Bit rate mode                  : Constant
Bit rate                       : 384 Kbps
Channel(s)                     : 2 channels
Channel positions              : Front: L R
Sampling rate                  : 48.0 KHz
Bit depth                      : 16 bits
Compression mode               : Lossy
Stream size                    : 286 MiB (16%)
Alignment                      : Split accross interleaves
Interleave, duration           : 42 ms (1.00 video frame)
Interleave, preload duration   : 500 ms

Subtitulos

Trailer