77
PUNTOS
Calificar
CALIFICA
Calificar
Califica y/o escribe un comentario sobre la película.
Comentarios en el foroFORO

120 battements par minute (2017)

París, principios de los años 90. Un grupo de jóvenes activistas intenta generar conciencia sobre el SIDA. Un nuevo miembro del grupo, Nathan, se quedará sorprendido ante la radicalidad y energía de Sean, que gasta su último aliento en la lucha.
Director Robin Campillo
Actores Nahuel Pérez Biscayart, Arnaud Valois, Adèle Haenel
Duración 140 min
País France
Streaming (Servicio externo)
Grupo: 120BPM
Versión: BDRip x264 AAC
Tamaño: 675 MB
General
Unique ID                                : 174188406328249823693627734999576122729 (0x830B777E525D5F139D824FFF2DE49569)
Complete name                            : 120.Battements.Par.Minute.2017.FRENCH.BDRip.x264-120BPM.mkv
Format                                   : Matroska
Format version                           : Version 4 / Version 2
File size                                : 683 MiB
Duration                                 : 2 h 23 min
Overall bit rate                         : 667 kb/s
Encoded date                             : UTC 2017-12-19 19:28:23
Writing application                      : mkvmerge v12.0.0 ('Trust / Lust') 32bit
Writing library                          : libebml v1.3.4 + libmatroska v1.4.5

Video
ID                                       : 1
Format                                   : AVC
Format/Info                              : Advanced Video Codec
Format profile                           : [email protected]
Format settings, CABAC                   : Yes
Format settings, RefFrames               : 5 frames
Codec ID                                 : V_MPEG4/ISO/AVC
Duration                                 : 2 h 23 min
Bit rate                                 : 555 kb/s
Width                                    : 720 pixels
Height                                   : 300 pixels
Display aspect ratio                     : 2.40:1
Frame rate mode                          : Constant
Frame rate                               : 23.976 (24000/1001) FPS
Color space                              : YUV
Chroma subsampling                       : 4:2:0
Bit depth                                : 8 bits
Scan type                                : Progressive
Bits/(Pixel*Frame)                       : 0.107
Stream size                              : 568 MiB (83%)
Writing library                          : x264 core 152 r2851 ba24899
Encoding settings                        : cabac=1 / ref=5 / deblock=1:0:0 / analyse=0x3:0x113 / me=umh / subme=8 / psy=1 / psy_rd=1.00:0.00 / mixed_ref=1 / me_range=16 / chroma_me=1 / trellis=2 / 8x8dct=1 / cqm=0 / deadzone=21,11 / fast_pskip=1 / chroma_qp_offset=-2 / threads=9 / lookahead_threads=1 / sliced_threads=0 / nr=0 / decimate=1 / interlaced=0 / bluray_compat=0 / constrained_intra=0 / bframes=3 / b_pyramid=2 / b_adapt=1 / b_bias=0 / direct=3 / weightb=1 / open_gop=0 / weightp=2 / keyint=250 / keyint_min=23 / scenecut=40 / intra_refresh=0 / rc_lookahead=50 / rc=crf / mbtree=1 / crf=19.0 / qcomp=0.60 / qpmin=0 / qpmax=69 / qpstep=4 / ip_ratio=1.40 / aq=1:1.00
Language                                 : English
Default                                  : Yes
Forced                                   : No
Color range                              : Limited
Matrix coefficients                      : BT.709

Audio
ID                                       : 2
Format                                   : AAC
Format/Info                              : Advanced Audio Codec
Format profile                           : LC
Codec ID                                 : A_AAC
Duration                                 : 2 h 23 min
Bit rate                                 : 110 kb/s
Channel(s)                               : 2 channels
Channel positions                        : Front: L R
Sampling rate                            : 48.0 kHz
Frame rate                               : 46.875 FPS (1024 SPF)
Compression mode                         : Lossy
Delay relative to video                  : 9 ms
Stream size                              : 112 MiB (16%)
Title                                    : French
Language                                 : French
Default                                  : Yes
Forced                                   : No

Menu #1
00:00:00.000                             : en:00:00:00.000
00:12:20.615                             : en:00:12:20.615
00:22:17.253                             : en:00:22:17.253
00:32:42.294                             : en:00:32:42.294
00:42:19.662                             : en:00:42:19.662
00:54:27.264                             : en:00:54:27.264
01:07:23.456                             : en:01:07:23.456
01:20:33.245                             : en:01:20:33.245
01:29:32.909                             : en:01:29:32.909
01:39:05.523                             : en:01:39:05.523
01:51:40.444                             : en:01:51:40.444
01:59:29.621                             : en:01:59:29.621
02:11:32.176                             : en:02:11:32.176
02:20:04.938                             : en:02:20:04.938

Menu #2
00:00:00.054                             : en:00:00:00.054

Subtitulos

Grupo: CADAVER
Versión: BDRip x264 AAC LIMITED
Tamaño: 700 MB
120.Beats.Per.Minute.2017.LiMiTED.BDRip.x264-CADAVER

Duration.......: 2 h 22 min
Video .........: x264 @ CRF 19 (578 Kbps)
Frame Rate.....: 24 fps
Resolution.....: 720x300
Audio..........: French 2ch AAC LC @ 109 Kbps
Subtitles......: English, English SDH
Size...........: 704.2 MB
IMDB...........: https://www.imdb.com/title/tt6135348

Subtitulos

Grupo: CADAVER
Versión: BDRip x264 720p LIMITED DTS
Tamaño: 6.6 GB
120.Beats.Per.Minute.2017.LiMiTED.720p.BluRay.x264-CADAVER

Duration.......: 2 h 22 min
Video .........: x264 @ 5059 Kbps
Frame Rate.....: 24 fps
Resolution.....: 1280x536
Audio..........: French 5.1ch DTS @ 1509 Kbps
Subtitles......: English, English SDH
Size...........: 6.6 GB
IMDB...........: https://www.imdb.com/title/tt6135348

Subtitulos

Grupo: CADAVER
Versión: BDRip x264 1080p LIMITED DTS
Tamaño: 10.9 GB
120.Beats.Per.Minute.2017.LiMiTED.1080p.BluRay.x264-CADAVER

Duration.......: 2 h 22 min
Video .........: x264 @ 9442 Kbps
Frame Rate.....: 24 fps
Resolution.....: 1920x808
Audio..........: French 5.1ch DTS @ 1509 Kbps
Subtitles......: English, English SDH
Size...........: 10.9 GB
IMDB...........: https://www.imdb.com/title/tt6135348

Subtitulos

Trailer