73
PUNTOS
Calificar
CALIFICA
Calificar
Califica y/o escribe un comentario sobre la película.
Comentarios en el foroFORO

Ucitelka (2016)

Desde la llegada en 1983 de Maria Drazdechova, una nueva profesora, a un colegio en un suburbio de Bratislava, la vida de padres y alumnos se altera enormemente. El comportamiento corrupto de la profesora y el intento de suicidio de uno de los estudiantes hacen que el director del colegio convoque a los padres de alumnos a una reunión urgente. En ella se les pide que firmen una petición de traslado para la Srta. Drazdechova. Sin embargo, las altas conexiones de la profesora con el Partido Comunista hacen que todos se sientan amenazados.
Director Jan Hrebejk
Actores Zuzana Mauréry, Zuzana Konecná, Csongor Kassai
Duración 102 min
País Slovakia, Czech Republic
Streaming (Servicio externo)
Grupo: SK
Versión: BDRip x264 AC3
Tamaño: 1.1 GB
Ucitelka.2016.BDRip.x264.SK

General
Unique ID                      : 174785875819911869351498021509911817573 (0x837E8903819C20DD988BAF98D3082D65)
Complete name                  : Ucitelka.2016.BDRip.x264.SK.mkv
Format                         : Matroska
Format version                 : Version 2
File size                      : 1.14 GiB
Duration                       : 1h 42mn
Overall bit rate               : 1 589 Kbps
Encoded date                   : UTC 2017-08-02 16:50:35
Writing application            : mkvmerge v14.0.0 ('Flow') 64bit
Writing library                : libebml v1.3.4 + libmatroska v1.4.5
DURATION                       : 00:00:50.750000000
NUMBER_OF_FRAMES               : 10
NUMBER_OF_BYTES                : 705
_STATISTICS_WRITING_APP        : mkvmerge v14.0.0 ('Flow') 64bit
_STATISTICS_WRITING_DATE_UTC   : 2017-08-02 16:50:35
_STATISTICS_TAGS               : BPS DURATION NUMBER_OF_FRAMES NUMBER_OF_BYTES

Video
ID                             : 1
Format                         : AVC
Format/Info                    : Advanced Video Codec
Format profile                 : [email protected]
Format settings, CABAC         : Yes
Format settings, ReFrames      : 16 frames
Codec ID                       : V_MPEG4/ISO/AVC
Duration                       : 1h 42mn
Bit rate                       : 1 110 Kbps
Width                          : 720 pixels
Height                         : 404 pixels
Display aspect ratio           : 16:9
Frame rate mode                : Constant
Frame rate                     : 24.000 fps
Color space                    : YUV
Chroma subsampling             : 4:2:0
Bit depth                      : 8 bits
Scan type                      : Progressive
Bits/(Pixel*Frame)             : 0.159
Stream size                    : 816 MiB (70%)
Title                          : TreZzoR
Writing library                : x264 core 148 r2705kMod 3f5ed56
Encoding settings              : cabac=1 / ref=16 / deblock=1:-3:-3 / analyse=0x3:0x133 / me=umh / subme=10 / psy=1 / fade_compensate=0.00 / psy_rd=1.05:0.00 / mixed_ref=1 / me_range=32 / chroma_me=1 / trellis=2 / 8x8dct=1 / cqm=0 / deadzone=21,11 / fast_pskip=0 / chroma_qp_offset=-2 / threads=13 / lookahead_threads=2 / sliced_threads=0 / nr=0 / decimate=0 / interlaced=0 / bluray_compat=0 / constrained_intra=0 / fgo=0 / bframes=8 / b_pyramid=2 / b_adapt=2 / b_bias=0 / direct=3 / weightb=1 / open_gop=0 / weightp=2 / keyint=250 / keyint_min=24 / scenecut=40 / intra_refresh=0 / rc_lookahead=60 / rc=crf / mbtree=0 / crf=18.0000 / qcomp=0.65 / qpmin=0 / qpmax=69 / qpstep=4 / vbv_maxrate=50000 / vbv_bufsize=62500 / crf_max=0.0 / nal_hrd=none / filler=0 / ip_ratio=1.30 / pb_ratio=1.20 / aq=1:0.80
Language                       : English
Default                        : Yes
Forced                         : No
DURATION                       : 01:42:52.584000000
NUMBER_OF_FRAMES               : 148142
NUMBER_OF_BYTES                : 879188469
_STATISTICS_WRITING_APP        : mkvmerge v14.0.0 ('Flow') 64bit
_STATISTICS_WRITING_DATE_UTC   : 2017-08-02 16:50:35
_STATISTICS_TAGS               : BPS DURATION NUMBER_OF_FRAMES NUMBER_OF_BYTES

Audio
ID                             : 2
Format                         : AC-3
Format/Info                    : Audio Coding 3
Mode extension                 : CM (complete main)
Format settings, Endianness    : Big
Codec ID                       : A_AC3
Duration                       : 1h 42mn
Bit rate mode                  : Constant
Bit rate                       : 448 Kbps
Channel(s)                     : 6 channels
Channel positions              : Front: L C R, Side: L R, LFE
Sampling rate                  : 48.0 KHz
Bit depth                      : 16 bits
Compression mode               : Lossy
Stream size                    : 330 MiB (28%)
Language                       : Slovak
Default                        : Yes
Forced                         : No

Text #1
ID                             : 3
Format                         : UTF-8
Codec ID                       : S_TEXT/UTF8
Codec ID/Info                  : UTF-8 Plain Text
Title                          : forced
Language                       : Slovak
Default                        : Yes
Forced                         : Yes

Text #2
ID                             : 4
Format                         : ASS
Codec ID                       : S_TEXT/ASS
Codec ID/Info                  : Advanced Sub Station Alpha
Compression mode               : Lossless
Title                          : forced ASS
Language                       : Slovak
Default                        : No
Forced                         : Yes

Menu
00:00:00.000                   : en:00:00:00.000
00:11:01.667                   : en:00:11:01.667
00:23:49.042                   : en:00:23:49.042
00:36:03.625                   : en:00:36:03.625
00:48:27.083                   : en:00:48:27.083
01:00:08.625                   : en:01:00:08.625
01:10:19.250                   : en:01:10:19.250
01:25:59.125                   : en:01:25:59.125

Subtitulos

Trailer