78
PUNTOS
Calificar
CALIFICA
Calificar
Califica y/o escribe un comentario sobre la película.
Comentarios en el foroFORO

Lady Bird (2017)

Una joven estudiante que se hace llamar "Lady Bird" (Saoirse Ronan) se muda al norte de California para pasar allí su último año de instituto. La joven, con inclinaciones artísticas y que sueña con vivir en la costa Este, tratará de ese modo encontrar su propio camino y definirse fuera de la sombra protectora de su madre (Laurie Metcalf).
Director Greta Gerwig
Actores Saoirse Ronan, Laurie Metcalf, Tracy Letts
Duración 94 min
País USA
Streaming (Servicio externo)
Grupo: Hive-CM8
Versión: DVDSCR XviD AC3
Tamaño: 1.4 GB
Lady.Bird.2017.DVDScr.XVID.AC3.HQ.Hive-CM8
 
Thx Hive
 
 CM8 Doing It Right The First Time
 
 Source: a cool dude on the street
 thx
 
 Notes:
 one more goodie
 Merry Christmas to everyone, from me and TiTAN
 Don´t forget watching a Screener is not like the real thing,
 you should still all go to the cinema and support the Producers.
 We are especially sharing this for the people who cant visit
 the cinema due to illness, or because it is a limited release
 that doesn't make it to their country.
 So those people also can experience some award nominated movies..Enjoy
 
 Encode:
 quality was nice, not much to do
 enjoy
 
 
 Screeners:
 We are still missing downsizing, hostiles and phantom thread,
 anyone want to share for the collection?
 Don't post info public or on any blog its too risky,
 it has to be done safely and secure in private,
 and we have proven that we can do it.
 Msg us cm8crew@hushmail.com - we will respect your wishes
 if you want to share with us in private it will stay private
 
 Video: 720x384 @bitrate ~1600 2pass
 Audio: English Stereo
 Sample: yes included
 
 
http://www.imdb.com/title/tt4925292/
 
 
 General
 Complete name                  : Lady.Bird.2017.DVDScr.XVID.AC3.HQ.Hive-CM8.avi
 Format                         : AVI
 Format/Info                    : Audio Video Interleave
 File size                      : 1.40 GiB
 Duration                       : 1h 32mn
 Overall bit rate               : 2 151 Kbps
 Writing application            : Nandub v1.0rc2
 Writing library                : Nandub build 1853/release
 
 Video
 ID                             : 0
 Format                         : MPEG-4 Visual
 Format profile                 : Advanced Simple@L5
 Format settings, BVOP          : 2
 Format settings, QPel          : Yes
 Format settings, GMC           : No warppoints
 Format settings, Matrix        : Default (H.263)
 Muxing mode                    : Packed bitstream
 Codec ID                       : XVID
 Codec ID/Hint                  : XviD
 Duration                       : 1h 32mn
 Bit rate                       : 1 884 Kbps
 Width                          : 720 pixels
 Height                         : 384 pixels
 Display aspect ratio           : 1.85:1
 Frame rate                     : 30.000 fps
 Color space                    : YUV
 Chroma subsampling             : 4:2:0
 Bit depth                      : 8 bits
 Scan type                      : Progressive
 Compression mode               : Lossy
 Bits/(Pixel*Frame)             : 0.227
 Stream size                    : 1.22 GiB (88%)
 Writing library                : XviD 1.2.1 (UTC 2008-12-04)
 
 Audio
 ID                             : 1
 Format                         : AC-3
 Format/Info                    : Audio Coding 3
 Mode extension                 : CM (complete main)
 Format settings, Endianness    : Big
 Codec ID                       : 2000
 Duration                       : 1h 32mn
 Bit rate mode                  : Constant
 Bit rate                       : 256 Kbps
 Channel(s)                     : 2 channels
 Channel positions              : Front: L R
 Sampling rate                  : 48.0 KHz
 Bit depth                      : 16 bits
 Compression mode               : Lossy
 Delay relative to video        : 12ms
 Stream size                    : 170 MiB (12%)
 Alignment                      : Split accross interleaves
 Interleave, duration           : 33 ms (1.00 video frame)
 Interleave, preload duration   : 500 ms

Subtitulos

Grupo: FGT
Versión: WEB-DL H.264 720p AC3
Tamaño: 2.9 GB
Lady.Bird.2017.720p.WEB-DL.DD5.1.H264-FGT

Video
ID                                       : 1
Format                                   : AVC
Format/Info                              : Advanced Video Codec
Format profile                           : High@L3.1
Format settings                          : 2 Ref Frames
Format settings, CABAC                   : No
Format settings, ReFrames                : 2 frames
Codec ID                                 : V_MPEG4/ISO/AVC
Duration                                 : 1 h 33 min
Bit rate                                 : 4 081 kb/s
Width                                    : 1 280 pixels
Height                                   : 688 pixels
Display aspect ratio                     : 1.85:1
Frame rate mode                          : Constant
Frame rate                               : 23.976 (24000/1001) FPS
Color space                              : YUV
Chroma subsampling                       : 4:2:0
Bit depth                                : 8 bits
Scan type                                : Progressive
Bits/(Pixel*Frame)                       : 0.193
Stream size                              : 2.67 GiB (91%)
Title                                    : Lady.Bird.2017.720p.WEB-DL.DD5.1.H264-FGT
Language                                 : English
Default                                  : Yes
Forced                                   : No
Color range                              : Limited
Color primaries                          : BT.709
Transfer characteristics                 : BT.709
Matrix coefficients                      : BT.709

Audio
ID                                       : 2
Format                                   : AC-3
Format/Info                              : Audio Coding 3
Codec ID                                 : A_AC3
Duration                                 : 1 h 33 min
Bit rate mode                            : Constant
Bit rate                                 : 384 kb/s
Channel(s)                               : 6 channels
Channel positions                        : Front: L C R, Side: L R, LFE
Sampling rate                            : 48.0 kHz
Frame rate                               : 31.250 FPS (1536 SPF)
Bit depth                                : 16 bits
Compression mode                         : Lossy
Delay relative to video                  : -42 ms
Stream size                              : 257 MiB (9%)
Title                                    : Lady.Bird.2017.720p.WEB-DL.DD5.1.H264-FGT
Language                                 : English
Service kind                             : Complete Main
Default                                  : Yes
Forced                                   : No

Menu
00:00:00.000                             : en:1
00:14:02.717                             : en:2
00:24:48.571                             : en:3
00:34:24.772                             : en:4
00:47:05.824                             : en:5
00:57:29.072                             : en:6
01:08:32.360                             : en:7
01:18:20.865                             : en:8
01:28:05.282                             : en:9

Subtitulos

Trailer