86
PUNTOS
Calificar
CALIFICA
Calificar
Califica y/o escribe un comentario sobre la película.
Comentarios en el foroFORO

Coco (2017)

Miguel es un joven con el sueño de convertirse en leyenda de la música a pesar de la prohibición de su familia. Su pasión le llevará a adentrarse en la "Tierra de los Muertos" para conocer su verdadero legado familiar.
Director Lee Unkrich, Adrian Molina
Actores Anthony Gonzalez, Gael García Bernal, Benjamin Bratt
País USA
Streaming (Servicio externo)
Grupo: SPARKS
Versión: BDRip x264 AAC
Tamaño: 875 MB
Coco.2017.BDRip.x264-SPARKS

Release.Date: 08.02.2018
Video.......: x264 @ CRF 19
Frame.Rate..: 23.976
Resolution..: 720x302
Audio.......: English 2ch AAC LC
Length......: 1 h 45 min
Source......: Retail BluRay
Size........: 868.1 MB
Subtitles...: English

Subtitulos

Grupo: SPARKS
Versión: BDRip x264 720p DTS
Tamaño: 4.4 GB
Coco.2017.720p.BluRay.x264-SPARKS

Release.Date: 08.02.2018
Video.......: x264 @ 4447 Kbps
Frame.Rate..: 23.976
Resolution..: 1280x536
Audio.......: English 5.1ch DTS @ 1509 Kbps
Length......: 1 h 45 min
Source......: Retail BluRay
Size........: 4.4 GB
Subtitles...: English

Subtitulos

Grupo: SPARKS
Versión: BDRip x264 1080p DTS
Tamaño: 5.5 GB
Coco.2017.1080p.BluRay.x264-SPARKS

Release.Date: 08.02.2018
Video.......: x264 @ 5938 Kbps
Frame.Rate..: 23.976
Resolution..: 1920x808
Audio.......: English 5.1ch DTS @ 1509 Kbps
Length......: 1 h 45 min
Source......: Retail BluRay
Size........: 5.5 GB
Subtitles...: English

Subtitulos

Grupo: Hive-CM8
Versión: DVDSCR XviD AC3
Tamaño: 1.6 GB
Coco.2017.DVDScr.XVID.AC3.HQ.Hive-CM8

Thx Hive
 
 CM8 Doing It Right The First Time
 
 Source: a cool dude on the street
 thx
 
 Notes:
 one more goodie for the kids
 Don´t forget watching a scr is not like the real thing,
 you should still all go to the cinema and support the Producers, thx
 We especially sharing this for the people who cant visit
 the cinema due to illness or because it is a limited release
 that doesnt make it to their country,
 so that they also can experience some award nominations.
 
 Encode:
 quality was nice, not much to do
 enjoy
 
 
 Screeners:
 We are still missing suburbicon,downsizing, hostiles and phantom thread,
 anyone want to share for the collection?
 Don't post info public or on any blog its too risky,
 it has to be done safely and secure in private,
 and we have proven that we can do it.
 Msg us [email protected] - we will respect your wishes
 if you want to share with us in private it will stay private
 
 Video: 720x304 @bitrate 2000 2pass
 Audio: English Stereo
 Sample: yes included
 
 
http://www.imdb.com/title/tt2380307
 
 
 General
 Complete name                  : Coco.2017.DVDScr.XVID.AC3.HQ.Hive-CM8.avi
 Format                         : AVI
 Format/Info                    : Audio Video Interleave
 File size                      : 1.64 GiB
 Duration                       : 1h 43mn
 Overall bit rate               : 2 261 Kbps
 Writing application            : Nandub v1.0rc2
 Writing library                : Nandub build 1853/release
 
 Video
 ID                             : 0
 Format                         : MPEG-4 Visual
 Format profile                 : Advanced [email protected]
 Format settings, BVOP          : 2
 Format settings, QPel          : Yes
 Format settings, GMC           : No warppoints
 Format settings, Matrix        : Default (H.263)
 Muxing mode                    : Packed bitstream
 Codec ID                       : XVID
 Codec ID/Hint                  : XviD
 Duration                       : 1h 43mn
 Bit rate                       : 1 993 Kbps
 Width                          : 720 pixels
 Height                         : 304 pixels
 Display aspect ratio           : 2.35:1
 Frame rate                     : 30.000 fps
 Color space                    : YUV
 Chroma subsampling             : 4:2:0
 Bit depth                      : 8 bits
 Scan type                      : Progressive
 Compression mode               : Lossy
 Bits/(Pixel*Frame)             : 0.303
 Stream size                    : 1.44 GiB (88%)
 Writing library                : XviD 1.2.1 (UTC 2008-12-04)
 
 Audio
 ID                             : 1
 Format                         : AC-3
 Format/Info                    : Audio Coding 3
 Mode extension                 : CM (complete main)
 Format settings, Endianness    : Big
 Codec ID                       : 2000
 Duration                       : 1h 43mn
 Bit rate mode                  : Constant
 Bit rate                       : 256 Kbps
 Channel(s)                     : 2 channels
 Channel positions              : Front: L R
 Sampling rate                  : 48.0 KHz
 Bit depth                      : 16 bits
 Compression mode               : Lossy
 Delay relative to video        : 24ms
 Stream size                    : 190 MiB (11%)
 Alignment                      : Split accross interleaves
 Interleave, duration           : 33 ms (1.00 video frame)
 Interleave, preload duration   : 500 ms

Subtitulos

Grupo: EVO
Versión: HDRip x264 720p AC3
Tamaño: 2.5 GB
Coco.2017.720p.HDRip.X264.AC3-EVO
                                           
SOURCE: Asian VOD :)
ViDEO: 3000 Kbps ([email protected])
RESOLUTiON: 1280x536
RUNTiME: 1h 40m 43s
SUBTiTLES: No.
AUDiO: 192 Kbps AC3 2.0
LANGUAGE: ENGLiSH
SPECIAL THANKS TO: BOSS_HITMAN + DdHD + KING_DVD
NOTES: Nothing cropped. Enjoy.

Subtitulos

Grupo: EVO
Versión: HDRip x264 1080p AC3
Tamaño: 4.1 GB
Coco.2017.1080p.HDRip.X264.AC3-EVO
                                             
SOURCE: 1080p CHS (DC) - Thanks!
ViDEO: 5700 Kbps ([email protected])
RESOLUTiON: 1920x800
RUNTiME: 1h 40m 43s
SUBTiTLES: No.
AUDiO: 192 Kbps AC3 2.0
LANGUAGE: ENGLiSH
SPECIAL THANKS TO: BOSS_HITMAN + DdHD + KING_DVD
NOTES: Enjoy.

Subtitulos

Grupo: WhiteRhino
Versión: BDRip x265 2160p AC3 / Atmos
Tamaño: 14.1 GB
Coco.2017.2160p.UHD.BluRay.x265-WhiteRhino

Size      : 14.1 GB (15,088,332,356 bytes)
IMDb      : http://www.imdb.com/title/tt2380307

Duration  : 1 h 45 min
Video     : x265 3840x1608 (23.976 fps) @ 12 Mb/s (CRF 17)
Audio     : English Dolby Atmos 7.1 @ 6434 kb/s
          : English Dolby Digital 5.1 @ 640 kb/s
Subtitles : English, French, Spanish
Grupo: NoGRP
Versión: NTSC AC3 AudioLatino
Tamaño: 300 MB
Delay 900 ms:

Coco.2017.BDRip.x264-SPARKS
Coco.2017.720p.BluRay.x264-SPARKS
Coco.2017.1080p.BluRay.x264-SPARKS
Trailer