73
PUNTOS
Calificar
CALIFICA
Calificar
Califica y/o escribe un comentario sobre la película.
Comentarios en el foroFORO

Darkest Hour (2017)

Drama ambientado en 1940, cuando Winston Churchill (Gary Oldman) se convierte en primer ministro británico en un momento realmente crucial de la Segunda Guerra Mundial, pues los nazis avanzan imparables conquistando prácticamente la totalidad del continente europeo y amenzando con una invasión a Inglaterra. Churchill deberá entonces explorar la posibilidad de un tratado de paz con Alemania, o ser fiel a sus ideales y luchar por la liberación de Europa.
Director Joe Wright
Actores Gary Oldman, Lily James, Kristin Scott Thomas
Duración 125 min
País UK
Streaming (Servicio externo)
Grupo: Hive-CM8
Versión: DVDSCR XviD AC3
Tamaño: 1.9 GB
Darkest.Hour.2017.DVDScr.XVID.AC3.HQ.Hive-CM8
 
Thx Hive
 
 CM8 Doing It Right The First Time
 
 Source: a cool dude on the street
 thx
 
 Notes:
 another goodie
 Don´t forget watching a scr is not like the real thing,
 you should still all go to the cinema and support the Producers, thx
 We especially sharing this for the people who cant visit
 the cinema due to illness or because it is a limited release
 that doesnt make it to their country,
 so that they also can experience some award nominations.
 
 Encode:
 quality was nice, not much to do
 enjoy
 
 
 Screeners:
 We are still missing hostiles,downsizing,phantom thread,gr.showman,
 money in the world anyone want to share for the collection? only serious people plz
 Don't post info public or on any blog its too risky,
 it has to be done safely and secure in private,
 and we have proven that we can do it.
 Msg us cm8crew@hushmail.com - we will respect your wishes
 if you want to share with us in private it will stay private
 
 Video: 720x384 @bitrate 1700 2pass
 Audio: English Stereo
 Sample: yes included
 
 
http://www.imdb.com/title/tt4555426/
 
 
 General
 Format                         : AVI
 Format/Info                    : Audio Video Interleave
 File size                      : 1.90 GiB
 Duration                       : 2h 4mn
 Overall bit rate               : 2 182 Kbps
 Writing application            : Nandub v1.0rc2
 Writing library                : Nandub build 1853/release
 
 Video
 ID                             : 0
 Format                         : MPEG-4 Visual
 Format profile                 : Advanced Simple@L5
 Format settings, BVOP          : 2
 Format settings, QPel          : Yes
 Format settings, GMC           : No warppoints
 Format settings, Matrix        : Default (H.263)
 Muxing mode                    : Packed bitstream
 Codec ID                       : XVID
 Codec ID/Hint                  : XviD
 Duration                       : 2h 4mn
 Bit rate                       : 1 914 Kbps
 Width                          : 720 pixels
 Height                         : 384 pixels
 Display aspect ratio           : 1.85:1
 Frame rate                     : 30.000 fps
 Color space                    : YUV
 Chroma subsampling             : 4:2:0
 Bit depth                      : 8 bits
 Scan type                      : Progressive
 Compression mode               : Lossy
 Bits/(Pixel*Frame)             : 0.231
 Stream size                    : 1.67 GiB (88%)
 Writing library                : XviD 1.2.1 (UTC 2008-12-04)
 
 Audio
 ID                             : 1
 Format                         : AC-3
 Format/Info                    : Audio Coding 3
 Mode extension                 : CM (complete main)
 Format settings, Endianness    : Big
 Codec ID                       : 2000
 Duration                       : 2h 4mn
 Bit rate mode                  : Constant
 Bit rate                       : 256 Kbps
 Channel(s)                     : 2 channels
 Channel positions              : Front: L R
 Sampling rate                  : 48.0 KHz
 Bit depth                      : 16 bits
 Compression mode               : Lossy
 Stream size                    : 229 MiB (12%)
 Alignment                      : Split accross interleaves
 Interleave, duration           : 33 ms (1.00 video frame)
 Interleave, preload duration   : 500 ms
Trailer