79
PUNTOS
Calificar
CALIFICA
Calificar
Califica y/o escribe un comentario sobre la película.
Comentarios en el foroFORO

Teströl és lélekröl (2017)

María comienza a trabajar como supervisora en un matadero de Budapest, pero pronto comienzan a surgir cotilleos y rumores sobre ella. Durante el almuerzo opta siempre por sentarse sola, y es consciente de sus deberes y obligaciones, con un estricto apego a las normas. Su mundo se compone de cifras y datos impresos en su memoria desde la primera infancia. Endre, su jefe, es un tipo tranquilo. Ambos empezarán a conocerse lentamente. Almas gemelas, se sorprenderán de compartir los mismos sueños. Con cautela, tratarán de convertir esos sueños en realidad.
Director Ildikó Enyedi
Actores Géza Morcsányi, Alexandra Borbély, Zoltán Schneider
Duración 116 min
País Hungary
Streaming (Servicio externo)
Grupo: DiN
Versión: WEBRip x265 576p AAC
Tamaño: 650 MB
On.Body.and.Soul.2017.576p.WEBRip.x265-DiN

General
Unique ID                      : 255097938001918679744363919361398980084 (0xBFEA1364ACE15EC59D75D10FDA12BDF4)
Complete name                  : On.Body.and.Soul.2017.576p.WEBRip.x265-DiN.mkv
Format                         : Matroska
Format version                 : Version 2
File size                      : 651 MiB
Duration                       : 1h 55mn
Overall bit rate               : 787 Kbps
Encoded date                   : UTC 2017-12-04 16:21:44
Writing application            : mkvmerge v18.0.0 ('Apricity') 64-bit
Writing library                : libebml v1.3.5 + libmatroska v1.4.8
DURATION                       : 01:55:33.205000000
NUMBER_OF_FRAMES               : 324994
NUMBER_OF_BYTES                : 166396665
_STATISTICS_WRITING_APP        : mkvmerge v18.0.0 ('Apricity') 64-bit
_STATISTICS_WRITING_DATE_UTC   : 2017-12-04 16:21:44
_STATISTICS_TAGS               : BPS DURATION NUMBER_OF_FRAMES NUMBER_OF_BYTES

Video
ID                             : 1
Format                         : HEVC
Format/Info                    : High Efficiency Video Coding
Format profile                 : Main 10@L3.0
Codec ID                       : V_MPEGH/ISO/HEVC
Duration                       : 1h 55mn
Width                          : 1 024 pixels
Height                         : 428 pixels
Display aspect ratio           : 2.40:1
Frame rate mode                : Constant
Frame rate                     : 24.000 fps
Color space                    : YUV
Chroma subsampling             : 4:2:0
Bit depth                      : 10 bits
Writing library                : x265 2.5+27-0e168bdeb48b:[Windows][MSVC 1911][64 bit] 10bit
Encoding settings              : cpuid=1050111 / frame-threads=12 / numa-pools=8 / wpp / no-pmode / no-pme / no-psnr / no-ssim / log-level=2 / input-csp=1 / input-res=1024x428 / interlace=0 / total-frames=166416 / level-idc=0 / high-tier=1 / uhd-bd=0 / ref=4 / no-allow-non-conformance / no-repeat-headers / annexb / no-aud / no-hrd / info / hash=0 / no-temporal-layers / open-gop / min-keyint=24 / keyint=250 / bframes=8 / b-adapt=2 / b-pyramid / bframe-bias=0 / rc-lookahead=30 / lookahead-slices=0 / scenecut=40 / no-intra-refresh / ctu=64 / min-cu-size=8 / no-rect / no-amp / max-tu-size=32 / tu-inter-depth=1 / tu-intra-depth=1 / limit-tu=0 / rdoq-level=0 / dynamic-rd=0.00 / no-ssim-rd / signhide / no-tskip / nr-intra=0 / nr-inter=0 / no-constrained-intra / strong-intra-smoothing / max-merge=3 / limit-refs=3 / no-limit-modes / me=3 / subme=3 / merange=57 / temporal-mvp / weightp / no-weightb / no-analyze-src-pics / deblock=-1:-1 / sao / no-sao-non-deblock / rd=3 / early-skip / rskip / no-fast-intra / no-tskip-fast / no-cu-lossless / no-b-intra / no-splitrd-skip / rdpenalty=0 / psy-rd=2.00 / psy-rdoq=0.00 / no-rd-refine / analysis-reuse-mode=0 / no-lossless / cbqpoffs=0 / crqpoffs=0 / rc=crf / crf=20.0 / qcomp=0.60 / qpstep=4 / stats-write=0 / stats-read=0 / ipratio=1.50 / pbratio=1.20 / aq-mode=2 / aq-strength=1.00 / cutree / zone-count=0 / no-strict-cbr / qg-size=32 / no-rc-grain / qpmax=51 / qpmin=0 / no-const-vbv / sar=1 / overscan=0 / videoformat=5 / range=0 / colorprim=1 / transfer=1 / colormatrix=1 / chromaloc=0 / display-window=0 / max-cll=0,0 / min-luma=0 / max-luma=1023 / log2-max-poc-lsb=8 / vui-timing-info / vui-hrd-info / slices=1 / opt-qp-pps / opt-ref-list-length-pps / no-multi-pass-opt-rps / scenecut-bias=0.05 / no-opt-cu-delta-qp / no-aq-motion / no-hdr / no-hdr-opt / no-dhdr10-opt / analysis-reuse-level=5 / scale-factor=0 / refine-intra=0 / refine-inter=0 / refine-mv=0 / no-limit-sao / ctu-info=0
Default                        : Yes
Forced                         : No
Color primaries                : BT.709
Transfer characteristics       : BT.709
Matrix coefficients            : BT.709
Color range                    : Limited

Audio
ID                             : 2
Format                         : AAC
Format/Info                    : Advanced Audio Codec
Format profile                 : LC
Codec ID                       : A_AAC
Duration                       : 1h 55mn
Channel(s)                     : 2 channels
Channel positions              : Front: L R
Sampling rate                  : 48.0 KHz
Compression mode               : Lossy
Delay relative to video        : 7ms
Language                       : Hungarian
Default                        : Yes
Forced                         : No

Subtitulos

Grupo: WEBTiFUL
Versión: WEBRip x264 AAC
Tamaño: 450 MB
On.Body.And.Soul.2017.WEBRip.x264-WEBTiFUL

Release Date.....: 2018/02/18
Video ...........: 720x306 @ 418 kbps
Audio ...........: Hungarian AAC 2.0 @ 128 kbps
Subs ............: English (Default), Spanish
Size.............: 454 MB
Duration.........: 01:55:00 min
IMDB.............: http://www.imdb.com/title/tt5607714/

Subtitulos

Grupo: BLUEBIRD
Versión: BDRip x264 720p AC3
Tamaño: 4.7 GB
On.Body.and.Soul.2017.x264.BDRip.720p.BLUEBIRD

General
Unique ID                      : 194118041345294176149131627900620541108 (0x9209C65D0BCA6395B0EA37B61C388CB4)
Complete name                  : On.Body.and.Soul.2017.x264.BDRip.720p.BLUEBIRD.mkv
Format                         : Matroska
Format version                 : Version 4 / Version 2
File size                      : 4.77 GiB
Duration                       : 1h 55mn
Overall bit rate               : 5 892 Kbps
Movie name                     : On.Body.and.Soul.2017.x264.BDRip.720p.BLUEBIRD
Encoded date                   : UTC 2018-01-25 07:57:42
Writing application            : mkvmerge v7.9.0 ('Birds') 64bit
Writing library                : libebml v1.3.1 + libmatroska v1.4.2
_STATISTICS_WRITING_APP        : mkvmerge v7.9.0 ('Birds') 64bit
_STATISTICS_WRITING_DATE_UTC   : 2018-01-25 07:57:42
_STATISTICS_TAGS               : BPS DURATION NUMBER_OF_FRAMES NUMBER_OF_BYTES
DURATION                       : 01:55:54.048000000
NUMBER_OF_FRAMES               : 217314
NUMBER_OF_BYTES                : 556323840

Video
ID                             : 1
Format                         : AVC
Format/Info                    : Advanced Video Codec
Format profile                 : High@L4.1
Format settings, CABAC         : Yes
Format settings, ReFrames      : 12 frames
Codec ID                       : V_MPEG4/ISO/AVC
Duration                       : 1h 55mn
Bit rate                       : 4 751 Kbps
Width                          : 1 280 pixels
Height                         : 536 pixels
Display aspect ratio           : 2.40:1
Frame rate mode                : Constant
Frame rate                     : 24.000 fps
Color space                    : YUV
Chroma subsampling             : 4:2:0
Bit depth                      : 8 bits
Scan type                      : Progressive
Bits/(Pixel*Frame)             : 0.289
Stream size                    : 3.85 GiB (81%)
Title                          : On.Body.and.Soul.2017.x264.BDRip.720p.BLUEBIRD
Writing library                : x264 core 152 r2851+58 429492e t_mod_Custom [8-bit@all X86]
Encoding settings              : cabac=1 / ref=12 / deblock=1:0:0 / analyse=0x3:0x113 / me=umh / subme=11 / psy=1 / fade_compensate=0.00 / psy_rd=1.02:0.00 / mixed_ref=1 / me_range=32 / chroma_me=1 / trellis=2 / 8x8dct=1 / cqm=0 / deadzone=21,11 / fast_pskip=0 / chroma_qp_offset=-2 / threads=6 / lookahead_threads=1 / sliced_threads=0 / nr=0 / decimate=0 / interlaced=0 / bluray_compat=0 / constrained_intra=0 / fgo=0 / bframes=7 / b_pyramid=2 / b_adapt=1 / b_bias=0 / direct=3 / weightb=1 / open_gop=0 / weightp=2 / keyint=240 / keyint_min=24 / scenecut=40 / intra_refresh=0 / rc_lookahead=80 / rc=crf / mbtree=0 / crf=15.4000 / qcomp=0.60 / qpmin=0:0:0 / qpmax=69:69:69 / qpstep=4 / vbv_maxrate=62500 / vbv_bufsize=78125 / crf_max=0.0 / nal_hrd=none / filler=0 / ip_ratio=1.40 / pb_ratio=1.30 / aq=1:0.90 / aq-sensitivity=10.00 / aq-factor=1.00:1.00:1.00 / aq2=0 / aq3=0
Default                        : Yes
Forced                         : No

Audio #1
ID                             : 2
Format                         : AC-3
Format/Info                    : Audio Coding 3
Mode extension                 : CM (complete main)
Format settings, Endianness    : Big
Codec ID                       : A_AC3
Duration                       : 1h 55mn
Bit rate mode                  : Constant
Bit rate                       : 384 Kbps
Channel(s)                     : 6 channels
Channel positions              : Front: L C R, Side: L R, LFE
Sampling rate                  : 48.0 KHz
Bit depth                      : 16 bits
Compression mode               : Lossy
Stream size                    : 318 MiB (7%)
Title                          : ???????????????? ???????????? (iTunes)
Language                       : Russian
Default                        : Yes
Forced                         : No

Audio #2
ID                             : 3
Format                         : AC-3
Format/Info                    : Audio Coding 3
Mode extension                 : CM (complete main)
Format settings, Endianness    : Big
Codec ID                       : A_AC3
Duration                       : 1h 55mn
Bit rate mode                  : Constant
Bit rate                       : 640 Kbps
Channel(s)                     : 6 channels
Channel positions              : Front: L C R, Side: L R, LFE
Sampling rate                  : 48.0 KHz
Bit depth                      : 16 bits
Compression mode               : Lossy
Stream size                    : 531 MiB (11%)
Language                       : Hungarian
Default                        : No
Forced                         : No

Menu
00:00:00.000                   : en:00:00:00.000
00:09:02.208                   : en:00:09:02.208
00:18:00.833                   : en:00:18:00.833
00:26:59.750                   : en:00:26:59.750
00:36:25.417                   : en:00:36:25.417
00:45:04.750                   : en:00:45:04.750
00:55:45.125                   : en:00:55:45.125
01:04:59.292                   : en:01:04:59.292
01:13:50.583                   : en:01:13:50.583
01:23:13.583                   : en:01:23:13.583
01:32:30.625                   : en:01:32:30.625
01:40:19.083                   : en:01:40:19.083
01:51:40.417                   : en:01:51:40.417

Subtitulos

Trailer