68
PUNTOS
Calificar
CALIFICA
Calificar
Califica y/o escribe un comentario sobre la película.
Comentarios en el foroFORO

Mugen no jûnin (2017)

Manji ve cómo su hermana pequeña es asesinada frente a él, iniciándo entonces su venganza. Una misteriosa mujer aparecerá ante Manji, otorgándole eterna juventud e inmortalidad. Entonces, los padres de Rin Asano serán asesinados por un grupo de espadachines llamado Itto ruy, siendo el estudio de esgrima de sus padres destruido. Para vengarse, pedirá ayuda a Manji, y ambos lucharán contra los Itto ruy.
Director Takashi Miike
Actores Takuya Kimura, Hana Sugisaki, Sôta Fukushi
Duración 140 min
País Japan, UK
Streaming (Servicio externo)
Grupo: BiPOLAR
Versión: BDRip x264 AAC LIMITED
Tamaño: 1.0 GB
X 1  X----------------------------------------------------------.
X  6 X>> Blade.of.the.Immortal.2017.LIMITED.BDRip.x264-BiPOLAR
X !  X-;--------------------------------------------------------\'
X____X> Video  < 720x302 740kb/s @ crf19 23.976fps ............
X R  X----------------------------------------------------------\'
X  E X> Audio  < Japanese 144kb/s 2ch AAC .....................
X L  X           English 144kb/s 2ch AAC ......................
X  E X----------------------------------------------------------\'
X A  X> Subs   < English regular/forced/dubtitles/dubtitles SDH
X  S X           (muxed .srt), Spanish ........................
X E  X----------------------------------------------------------\'
X    X> Size   < 1048.17mb (1099086087bytes) ..................
X  I X----------------------------------------------------------\'
X N  X> Length < 2h 21mn ......................................
X  F X----------------------------------------------------------\'
X O  X> IMDb   < http://www.imdb.com/title/tt5084170 ..........
X  ! X----------------------------------------------------------\'
X----X> Notes  < Hi ...........................................

Subtitulos

Grupo: USURY
Versión: BDRip x264 720p LIMITED DTS
Tamaño: 8.7 GB
Blade.of.the.Immortal.2017.LIMITED.720p.BluRay.x264-USURY

Video...: 1280x536 5846kb/s @ 23.976fps
Audio1..: Japanese 1509kb/s 6ch DTS
Audio2..: English 1509kb/s 6ch DTS
Subs....: English regular/forced/dubtitles/dubtitles SDH
(muxed .srt), Spanish
Size....: 8957.63mb (9392759390bytes)
Runtime.: 2h 21mn
IMDB....: http://www.imdb.com/title/tt5084170

Subtitulos

Grupo: USURY
Versión: BDRip x264 1080p LIMITED DTS
Tamaño: 15.3 GB
Blade.of.the.Immortal.2017.LIMITED.1080p.BluRay.x264-USURY

Video...: 1920x808 12494kb/s @ 23.976fps
Audio1..: Japanese 1509kb/s 6ch DTS
Audio2..: English 1509kb/s 6ch DTS
Subs....: English regular/forced/dubtitles/dubtitles SDH
(muxed .srt), Spanish
Size....: 15673.11mb (16434446862bytes)
Runtime.: 2h 21mn
IMDB....: http://www.imdb.com/title/tt5084170

Subtitulos

Grupo: FGT
Versión: BDRip x264 720p DTS
Tamaño: 6.2 GB
Video
ID                                       : 1
Format                                   : AVC
Format/Info                              : Advanced Video Codec
Format profile                           : [email protected]
Format settings                          : CABAC / 4 Ref Frames
Format settings, CABAC                   : Yes
Format settings, ReFrames                : 4 frames
Codec ID                                 : V_MPEG4/ISO/AVC
Duration                                 : 2 h 20 min
Bit rate                                 : 4 707 kb/s
Width                                    : 1 280 pixels
Height                                   : 536 pixels
Display aspect ratio                     : 2.40:1
Frame rate mode                          : Constant
Frame rate                               : 23.976 (24000/1001) FPS
Color space                              : YUV
Chroma subsampling                       : 4:2:0
Bit depth                                : 8 bits
Scan type                                : Progressive
Bits/(Pixel*Frame)                       : 0.286
Stream size                              : 4.63 GiB (74%)
Title                                    : Blade.of.the.Immortal.2017.JAPANESE.720p.BluRay.x264.DTS-FGT
Writing library                          : x264 core 148 r2795M aaa9aa8
Encoding settings                        : cabac=1 / ref=4 / deblock=1:-2:-2 / analyse=0x3:0x113 / me=umh / subme=9 / psy=1 / psy_rd=1.00:0.15 / mixed_ref=1 / me_range=16 / chroma_me=1 / trellis=2 / 8x8dct=1 / cqm=0 / deadzone=21,11 / fast_pskip=1 / chroma_qp_offset=-3 / threads=24 / lookahead_threads=3 / sliced_threads=0 / nr=0 / decimate=1 / interlaced=0 / bluray_compat=0 / constrained_intra=0 / bframes=3 / b_pyramid=2 / b_adapt=2 / b_bias=0 / direct=3 / weightb=1 / open_gop=0 / weightp=2 / keyint=250 / keyint_min=23 / scenecut=40 / intra_refresh=0 / rc_lookahead=50 / rc=crf / mbtree=1 / crf=16.0 / qcomp=0.60 / qpmin=0 / qpmax=69 / qpstep=4 / ip_ratio=1.40 / aq=1:1.00
Language                                 : English
Default                                  : Yes
Forced                                   : No

Audio
ID                                       : 2
Format                                   : DTS
Format/Info                              : Digital Theater Systems
Codec ID                                 : A_DTS
Duration                                 : 2 h 20 min
Bit rate mode                            : Constant
Bit rate                                 : 1 509 kb/s
Channel(s)                               : 6 channels
Channel positions                        : Front: L C R, Side: L R, LFE
Sampling rate                            : 48.0 kHz
Frame rate                               : 93.750 FPS (512 SPF)
Bit depth                                : 24 bits
Compression mode                         : Lossy
Stream size                              : 1.49 GiB (24%)
Title                                    : Blade.of.the.Immortal.2017.JAPANESE.720p.BluRay.x264.DTS-FGT
Language                                 : Japanese
Default                                  : No
Forced                                   : No

Text
ID                                       : 3
Format                                   : UTF-8
Codec ID                                 : S_TEXT/UTF8
Codec ID/Info                            : UTF-8 Plain Text
Language                                 : English
Default                                  : Yes
Forced                                   : Yes

Menu
00:00:00.000                             : en:Chapter 01
00:11:51.168                             : en:Chapter 02
00:25:10.675                             : en:Chapter 03
00:42:28.254                             : en:Chapter 04
00:52:53.420                             : en:Chapter 05
01:01:27.684                             : en:Chapter 06
01:16:27.583                             : en:Chapter 07
01:28:38.855                             : en:Chapter 08
01:36:22.109                             : en:Chapter 09
01:45:16.518                             : en:Chapter 10
02:01:52.013                             : en:Chapter 11
02:16:54.080                             : en:Chapter 12
02:20:57.073                             : en:Chapter 13
Grupo: FGT
Versión: BDRip x264 1080p DTS
Tamaño: 13.4 GB
Video
ID                                       : 1
Format                                   : AVC
Format/Info                              : Advanced Video Codec
Format profile                           : [email protected]
Format settings                          : CABAC / 4 Ref Frames
Format settings, CABAC                   : Yes
Format settings, ReFrames                : 4 frames
Codec ID                                 : V_MPEG4/ISO/AVC
Duration                                 : 2 h 20 min
Bit rate                                 : 12.0 Mb/s
Width                                    : 1 920 pixels
Height                                   : 804 pixels
Display aspect ratio                     : 2.40:1
Frame rate mode                          : Constant
Frame rate                               : 23.976 (24000/1001) FPS
Color space                              : YUV
Chroma subsampling                       : 4:2:0
Bit depth                                : 8 bits
Scan type                                : Progressive
Bits/(Pixel*Frame)                       : 0.324
Stream size                              : 11.8 GiB (87%)
Title                                    : Blade.of.the.Immortal.2017.JAPANESE.1080p.BluRay.x264.DTS-FGT
Writing library                          : x264 core 148 r2795M aaa9aa8
Encoding settings                        : cabac=1 / ref=4 / deblock=1:-2:-2 / analyse=0x3:0x113 / me=umh / subme=9 / psy=1 / psy_rd=1.00:0.15 / mixed_ref=1 / me_range=16 / chroma_me=1 / trellis=2 / 8x8dct=1 / cqm=0 / deadzone=21,11 / fast_pskip=1 / chroma_qp_offset=-3 / threads=24 / lookahead_threads=3 / sliced_threads=0 / nr=0 / decimate=1 / interlaced=0 / bluray_compat=0 / constrained_intra=0 / bframes=3 / b_pyramid=2 / b_adapt=2 / b_bias=0 / direct=3 / weightb=1 / open_gop=0 / weightp=2 / keyint=250 / keyint_min=23 / scenecut=40 / intra_refresh=0 / rc_lookahead=50 / rc=crf / mbtree=1 / crf=17.0 / qcomp=0.60 / qpmin=0 / qpmax=69 / qpstep=4 / ip_ratio=1.40 / aq=1:1.00
Language                                 : English
Default                                  : Yes
Forced                                   : No

Audio
ID                                       : 2
Format                                   : DTS
Format/Info                              : Digital Theater Systems
Codec ID                                 : A_DTS
Duration                                 : 2 h 20 min
Bit rate mode                            : Constant
Bit rate                                 : 1 509 kb/s
Channel(s)                               : 6 channels
Channel positions                        : Front: L C R, Side: L R, LFE
Sampling rate                            : 48.0 kHz
Frame rate                               : 93.750 FPS (512 SPF)
Bit depth                                : 24 bits
Compression mode                         : Lossy
Stream size                              : 1.49 GiB (11%)
Title                                    : Blade.of.the.Immortal.2017.JAPANESE.1080p.BluRay.x264.DTS-FGT
Language                                 : Japanese
Default                                  : No
Forced                                   : No

Text
ID                                       : 3
Format                                   : UTF-8
Codec ID                                 : S_TEXT/UTF8
Codec ID/Info                            : UTF-8 Plain Text
Language                                 : English
Default                                  : Yes
Forced                                   : Yes

Menu
00:00:00.000                             : en:Chapter 01
00:11:51.168                             : en:Chapter 02
00:25:10.675                             : en:Chapter 03
00:42:28.254                             : en:Chapter 04
00:52:53.420                             : en:Chapter 05
01:01:27.684                             : en:Chapter 06
01:16:27.583                             : en:Chapter 07
01:28:38.855                             : en:Chapter 08
01:36:22.109                             : en:Chapter 09
01:45:16.518                             : en:Chapter 10
02:01:52.013                             : en:Chapter 11
02:16:54.080                             : en:Chapter 12
02:20:57.073                             : en:Chapter 13
Trailer