71
PUNTOS
Calificar
CALIFICA
Calificar
Califica y/o escribe un comentario sobre la película.
Comentarios en el foroFORO

Ray (2016)

Sigue los pasos de tres personas cuyos caminos se cruzan en los terribles tiempos de la II Guerra Mundial. Olga es una aristócrata rusa miembro de la Resistencia Francesa que es arrestada por la policía nazi por ocultar a dos niños judíos durante una redada. Arrestada y enviada a la cárcel en espera de una decisión final, en prisión conoce a Jules, un funcionario francés colaboracionista que debe investigar su caso. Allí también se encontrará con Helmut, un alto oficial de las SS, que hace muchos años fuera su amante y que todavía parece mantener sentimientos por ella.
Director Andrey Konchalovskiy
Actores Peter Kurth, Yuliya Vysotskaya, Viktor Sukhorukov
Duración 130 min
País Russia, Germany
Streaming (Servicio externo)
Grupo: BiPOLAR
Versión: DVDRip x264 AAC
Tamaño: 500 MB
X 1  X----------------------------------------------------------.
X  6 X>> Paradise.2016.LIMITED.DVDRip.x264-BiPOLAR ............
X !  X-;--------------------------------------------------------\'
X____X> Video  < 540x404 412kb/s @ crf19 23.976fps ............
X R  X----------------------------------------------------------\'
X  E X> Audio  < Russian 118kb/s 2ch AAC ......................
X L  X----------------------------------------------------------\'
X  E X> Subs   < English (muxed .srt) .........................
X A  X----------------------------------------------------------\'
X  S X> Size   < 501.92mb (526307038bytes) ....................
X E  X----------------------------------------------------------\'
X    X> Length < 2h 11mn ......................................
X  I X----------------------------------------------------------\'
X N  X> IMDb   < http://www.imdb.com/title/tt4551318 ..........
X  F X----------------------------------------------------------\'
X O  X> Notes  < Hi ...........................................
X  ! X           ..............................................
X----X           ..............................................

Subtitulos

Grupo: DEEP
Versión: WEB-DL H.264 720p AC3 REPACK
Tamaño: 3.8 GB
General
Unique ID : 221775744293133999902942575778371188553 (0xA6D8746662E636B1926729DEE56BB749)
Complete name : Ray.AKA.Paradise.2016.REPACK.WEB-DL.720p.h264.AAC-DEEP.mkv
Format : Matroska
Format version : Version 4 / Version 2
File size : 3.80 GiB
Duration : 2 h 11 min
Overall bit rate : 4 127 kb/s
Encoded date : UTC 2018-02-17 07:45:34
Writing application : mkvmerge v14.0.0 ('Flow') 64bit
Writing library : libebml v1.3.4 + libmatroska v1.4.5

Video
ID : 1
Format : AVC
Format/Info : Advanced Video Codec
Format profile : [email protected]
Format settings, CABAC : No
Format settings, RefFrames : 2 frames
Codec ID : V_MPEG4/ISO/AVC
Duration : 2 h 11 min
Bit rate : 3 934 kb/s
Width : 960 pixels
Height : 720 pixels
Display aspect ratio : 4:3
Frame rate mode : Constant
Frame rate : 23.976 (24000/1001) FPS
Color space : YUV
Chroma subsampling : 4:2:0
Bit depth : 8 bits
Scan type : Progressive
Bits/(Pixel*Frame) : 0.237
Stream size : 3.62 GiB (95%)
Default : No
Forced : No
Color range : Limited
Color primaries : BT.709
Transfer characteristics : BT.709
Matrix coefficients : BT.709

Audio
ID : 2
Format : AC-3
Format/Info : Audio Coding 3
Format settings, Endianness : Big
Codec ID : A_AC3
Duration : 2 h 11 min
Bit rate mode : Constant
Bit rate : 192 kb/s
Channel(s) : 2 channels
Channel positions : Front: L R
Sampling rate : 48.0 kHz
Frame rate : 31.250 FPS (1536 SPF)
Bit depth : 16 bits
Compression mode : Lossy
Delay relative to video : 26 ms
Stream size : 181 MiB (5%)
Service kind : Complete Main
Default : No
Forced : No

Text
ID : 3
Format : UTF-8
Codec ID : S_TEXT/UTF8
Codec ID/Info : UTF-8 Plain Text
Duration : 2 h 1 min
Bit rate : 47 b/s
Count of elements : 1356
Stream size : 41.9 KiB (0%)
Language : English
Default : Yes
Forced : No

Subtitulos

Trailer