67
PUNTOS
Calificar
CALIFICA
Calificar
Califica y/o escribe un comentario sobre la pelĂ­cula.
Comentarios en el foroFORO

Please Stand By (2017)

Wendy, una joven autista bajo la vigilancia de su cuidadora, encuentra la forma de huir. Todo lo que ella quiere es enviar un texto para una competencia de redacciones y mostrar que tiene talento para ser escritora.
Director Ben Lewin
Actores Dakota Fanning, Alice Eve, Toni Collette
Duración 93 min
País USA
Streaming (Servicio externo)
Grupo: AMIABLE
Versión: BDRip x264 AAC
Tamaño: 500 MB
Please.Stand.By.2017.BDRip.X264-AMIABLE

Date .....: 05/2018
Runtime ..: 01:32:46
Video ....: 720x300 (23.976fps @ CRF 19)
Lang .....: English
Subs .....: English / Spanish
IMDB .....: https://www.imdb.com/title/tt4652650/
BOM ......: http://www.boxofficemojo.com/movies/?id=pleasestandby.htm
Genre ....: Comedy, Drama

Subtitulos

Grupo: AMIABLE
Versión: BDRip x264 720p DTS
Tamaño: 4.4 GB
Please.Stand.By.2017.720p.BluRay.X264-AMIABLE

Date .....: 05/2018
Runtime ..: 01:32:46
Video ....: 1280x536 (23.976fps)
Audio ....: DTS 5.1 1509kbps
Lang .....: English
Subs .....: English / Spanish
IMDB .....: https://www.imdb.com/title/tt4652650/
BOM ......: http://www.boxofficemojo.com/movies/?id=pleasestandby.htm
Genre ....: Comedy, Drama

Subtitulos

Grupo: AMIABLE
Versión: BDRip x264 1080p DTS
Tamaño: 6.6 GB
Please.Stand.By.2017.1080p.BluRay.X264-AMIABLE

Date .....: 05/2018
Runtime ..: 01:32:46
Video ....: 1920x800 (23.976fps)
Audio ....: DTS 5.1 1509kbps
Lang .....: English
Subs .....: English / Spanish
IMDB .....: https://www.imdb.com/title/tt4652650/
BOM ......: http://www.boxofficemojo.com/movies/?id=pleasestandby.htm
Genre ....: Comedy, Drama

Subtitulos

Grupo: MTeam
Versión: BDRip x264 720p DTS
Tamaño: 4.9 GB
Video
ID                                       : 1
Format                                   : AVC
Format/Info                              : Advanced Video Codec
Format profile                           : [email protected]
Format settings                          : CABAC / 12 Ref Frames
Format settings, CABAC                   : Yes
Format settings, ReFrames                : 12 frames
Codec ID                                 : V_MPEG4/ISO/AVC
Duration                                 : 1 h 32 min
Bit rate                                 : 6 000 kb/s
Width                                    : 1 280 pixels
Height                                   : 534 pixels
Display aspect ratio                     : 2.40:1
Frame rate mode                          : Constant
Frame rate                               : 23.976 (24000/1001) FPS
Color space                              : YUV
Chroma subsampling                       : 4:2:0
Bit depth                                : 8 bits
Scan type                                : Progressive
Bits/(Pixel*Frame)                       : 0.366
Stream size                              : 3.89 GiB (80%)
Writing library                          : x264 core 152 r2851 ba24899
Encoding settings                        : cabac=1 / ref=12 / deblock=1:-2:-2 / analyse=0x3:0x133 / me=umh / subme=10 / psy=1 / psy_rd=1.00:0.00 / mixed_ref=1 / me_range=32 / chroma_me=1 / trellis=2 / 8x8dct=1 / cqm=0 / deadzone=21,11 / fast_pskip=0 / chroma_qp_offset=-2 / threads=12 / lookahead_threads=1 / sliced_threads=0 / nr=0 / decimate=0 / interlaced=0 / bluray_compat=0 / constrained_intra=0 / bframes=6 / b_pyramid=2 / b_adapt=2 / b_bias=0 / direct=3 / weightb=1 / open_gop=0 / weightp=2 / keyint=230 / keyint_min=22 / scenecut=40 / intra_refresh=0 / rc_lookahead=60 / rc=2pass / mbtree=1 / bitrate=6000 / ratetol=1.0 / qcomp=0.60 / qpmin=0 / qpmax=69 / qpstep=4 / cplxblur=20.0 / qblur=0.5 / vbv_maxrate=50000 / vbv_bufsize=50000 / nal_hrd=none / filler=0 / ip_ratio=1.40 / aq=1:1.00
Default                                  : Yes
Forced                                   : No

Audio
ID                                       : 2
Format                                   : DTS
Format/Info                              : Digital Theater Systems
Codec ID                                 : A_DTS
Duration                                 : 1 h 32 min
Bit rate mode                            : Constant
Bit rate                                 : 1 509 kb/s
Channel(s)                               : 6 channels
Channel positions                        : Front: L C R, Side: L R, LFE
Sampling rate                            : 48.0 kHz
Frame rate                               : 93.750 FPS (512 SPF)
Bit depth                                : 24 bits
Compression mode                         : Lossy
Stream size                              : 1 001 MiB (20%)
Title                                    : ??
Language                                 : English
Default                                  : Yes
Forced                                   : No

Grupo: MTeam
Versión: BDRip x264 1080p DTS
Tamaño: 8.8 GB
Video
ID                                       : 1
Format                                   : AVC
Format/Info                              : Advanced Video Codec
Format profile                           : [email protected]
Format settings                          : CABAC / 5 Ref Frames
Format settings, CABAC                   : Yes
Format settings, ReFrames                : 5 frames
Codec ID                                 : V_MPEG4/ISO/AVC
Duration                                 : 1 h 32 min
Bit rate                                 : 12.0 Mb/s
Width                                    : 1 920 pixels
Height                                   : 800 pixels
Display aspect ratio                     : 2.40:1
Frame rate mode                          : Constant
Frame rate                               : 23.976 (24000/1001) FPS
Color space                              : YUV
Chroma subsampling                       : 4:2:0
Bit depth                                : 8 bits
Scan type                                : Progressive
Bits/(Pixel*Frame)                       : 0.326
Stream size                              : 7.77 GiB (89%)
Writing library                          : x264 core 152 r2851 ba24899
Encoding settings                        : cabac=1 / ref=5 / deblock=1:-3:-3 / analyse=0x3:0x133 / me=umh / subme=10 / psy=1 / psy_rd=1.00:0.00 / mixed_ref=1 / me_range=48 / chroma_me=1 / trellis=2 / 8x8dct=1 / cqm=0 / deadzone=21,11 / fast_pskip=0 / chroma_qp_offset=-2 / threads=12 / lookahead_threads=1 / sliced_threads=0 / nr=0 / decimate=0 / interlaced=0 / bluray_compat=0 / constrained_intra=0 / bframes=6 / b_pyramid=2 / b_adapt=2 / b_bias=0 / direct=3 / weightb=0 / open_gop=0 / weightp=2 / keyint=230 / keyint_min=22 / scenecut=40 / intra_refresh=0 / rc_lookahead=60 / rc=2pass / mbtree=1 / bitrate=12000 / ratetol=1.0 / qcomp=0.60 / qpmin=0 / qpmax=69 / qpstep=4 / cplxblur=20.0 / qblur=0.5 / vbv_maxrate=50000 / vbv_bufsize=50000 / nal_hrd=none / filler=0 / ip_ratio=1.40 / aq=1:1.00
Language                                 : English
Default                                  : Yes
Forced                                   : No

Audio
ID                                       : 2
Format                                   : DTS
Format/Info                              : Digital Theater Systems
Codec ID                                 : A_DTS
Duration                                 : 1 h 32 min
Bit rate mode                            : Constant
Bit rate                                 : 1 509 kb/s
Channel(s)                               : 6 channels
Channel positions                        : Front: L C R, Side: L R, LFE
Sampling rate                            : 48.0 kHz
Frame rate                               : 93.750 FPS (512 SPF)
Bit depth                                : 24 bits
Compression mode                         : Lossy
Stream size                              : 1 001 MiB (11%)
Title                                    :
Language                                 : English
Default                                  : Yes
Forced                                   : No
Trailer