77
PUNTOS
Calificar
CALIFICA
Calificar
Califica y/o escribe un comentario sobre la película.
Comentarios en el foroFORO

Nelyubov (2017)

Una pareja que atraviesa un divorcio debe aunar fuerzas para encontrar a su hijo, desaparecido tras una de sus peleas.
Director Andrey Zvyagintsev
Actores Maryana Spivak, Aleksey Rozin, Matvey Novikov
Duración 127 min
País Russia, France, Germany, Belgium, USA
Streaming (Servicio externo)
Grupo: DEPTH
Versión: BDRip x264 AAC RERip
Tamaño: 550 MB
Loveless.2017.RERIP.BDRip.x264-DEPTH

date   16/06/2018
size   545 mb
length   2 h 6 min
video   720x302 crf19 @ 466 kb/s
audio   russian aac-lc 2.0 @ 132 kb/s
subs   english, french, spanish
url   https://www.imdb.com/title/tt6304162

Somehow, the subtitles on our previous release
contain 2 Unix line-breaks, which makes some
players (at least MPC-HC) display the text
incorrectly - check the Proof dir.

We are aware we could have just released a
SUBFIX, but we dislike that type of workarounds,
and believe a release should be working by
itself, without any extra steps.

This is tagged as RERIP instead of REPACK
because we took the opportunity to also reencode
the video with better settings (veryslow preset,
instead of slower).

Sorry about the mess up! Enjoy.

Subtitulos

Grupo: DEPTH
Versión: BDRip x264 720p RERip DTS
Tamaño: 5.5 GB
Loveless.2017.RERIP.720p.BluRay.x264-DEPTH

date   16/06/2018
size   5584 mb
length   2 h 6 min
video   1280x536 2pass @ 4649 kb/s
audio   russian dts 5.1 @ 1509 kb/s
subs   english, french, spanish
url   https://www.imdb.com/title/tt6304162

Somehow, the subtitles on our previous release
contain 2 Unix line-breaks, which makes some
players (at least MPC-HC) display the text
incorrectly - check the Proof dir.

We are aware we could have just released a
SUBFIX, but we dislike that type of workarounds,
and believe a release should be working by
itself, without any extra steps.

This is tagged as RERIP instead of REPACK
because we took the opportunity to also reencode
the video with better settings (veryslow preset,
instead of slower).

Sorry about the mess up! Enjoy.

Subtitulos

Grupo: DEPTH
Versión: BDRip x264 1080p RERip DTS
Tamaño: 10.9 GB
Loveless.2017.RERIP.1080p.BluRay.x264-DEPTH

date   16/06/2018
size   11183 mb
length   2 h 6 min
video   1920x808 2pass @ 10827 kb/s
audio   russian dts 5.1 @ 1509 kb/s
subs   english, french, spanish
url   https://www.imdb.com/title/tt6304162

Somehow, the subtitles on our previous release
contain 2 Unix line-breaks, which makes some
players (at least MPC-HC) display the text
incorrectly - check the Proof dir.

We are aware we could have just released a
SUBFIX, but we dislike that type of workarounds,
and believe a release should be working by
itself, without any extra steps.

This is tagged as RERIP instead of REPACK
because we took the opportunity to also reencode
the video with better settings (veryslow preset,
instead of slower).

Sorry about the mess up! Enjoy.

Subtitulos

Grupo: DON
Versión: BDRip x264 720p AC3
Tamaño: 8.8 GB
Loveless.2017.720p.BluRay.DD5.1.x264-DON

RELEASE NAME……: Loveless.(2017).720p.BluRay.DD5.1.x264-DON
RELEASE SIZE……: 8.83 GB (2-pass)
RELEASE DATE……: 05/02/2018
RUNTIME………..: 02:01:46
VIDEO CODEC…….: x264 tmod rev.2893, [email protected]
FRAMERATE………: 25.00 fps
BITRATE………..: 9750 kbps
RESOLUTION……..: 1280 x 536 (2.388)
AUDIO………….: Russian, DD 5.1 @ 640 Kbps (Pro Encoder)
COMMENTARY……..: NONE
SUBTITLES………: English (srt) [Taken from WEB]
CHAPTERS……….: Yes
SOURCE…………: BluRay / Untouched / Pyramide Video Nelyubov 2017 1080p FRA Blu-ray AVC DTS-HD MA 5.1-BLUEBIRD (Thanks to original uploader!)

Subtitulos

Grupo: HORiZON-ArtSubs
Versión: BRRip x264 1080p
Tamaño: 1.9 GB
Complete name : Loveless.[Nelyubov].2017.ORIGINAL.1080p.BRRip.x264.AC3.HORiZON-ArtSubs
Format : Matroska
Format version : Version 4 / Version 2
File size : 1.89 GiB
Duration : 2h 1mn
Overall bit rate : 2 217 Kbps
Encoded date : UTC 2018-02-02T04:53:33Z
Writing application : HandBrake 1.0.7 2017040900
Writing library : Lavf57.7.2

Video
ID : 1
Format : AVC
Format/Info : Advanced Video Codec
Format profile : [email protected]
Format settings, CABAC : Yes
Format settings, ReFrames : 4 frames
Codec ID : V_MPEG4/ISO/AVC
Duration : 2h 1mn
Bit rate : 1 782 Kbps
Width : 1 920 pixels
Height : 808 pixels
Display aspect ratio : 2.40:1
Frame rate mode : Constant
Frame rate : 25.000 fps
Color space : YUV
Chroma subsampling : 4:2:0
Bit depth : 8 bits
Scan type : Progressive
Bits/(Pixel*Frame) : 0.046
Stream size : 1.47 GiB (78%)
Writing library : x264 core 148 r2708 86b7198
Encoding settings : cabac=1 / ref=3 / deblock=1:-1:-1 / analyse=0x3:0x113 / me=hex / subme=7 / psy=1 / psy_rd=1.00:0.15 / mixed_ref=1 / me_range=16 / chroma_me=1 / trellis=1 / 8x8dct=1 / cqm=0 / deadzone=21,11 / fast_pskip=1 / chroma_qp_offset=-3 / threads=9 / lookahead_threads=1 / sliced_threads=0 / nr=0 / decimate=1 / interlaced=0 / bluray_compat=0 / constrained_intra=0 / bframes=3 / b_pyramid=2 / b_adapt=1 / b_bias=0 / direct=1 / weightb=1 / open_gop=0 / weightp=2 / keyint=250 / keyint_min=25 / scenecut=40 / intra_refresh=0 / rc_lookahead=40 / rc=2pass / mbtree=1 / bitrate=1782 / ratetol=1.0 / qcomp=0.60 / qpmin=0 / qpmax=69 / qpstep=4 / cplxblur=20.0 / qblur=0.5 / vbv_maxrate=62500 / vbv_bufsize=78125 / nal_hrd=none / filler=0 / ip_ratio=1.40 / aq=1:1.00
Default : Yes
Forced : No

Audio
ID : 2
Format : AC-3
Format/Info : Audio Coding 3
Mode extension : CM (complete main)
Format settings, Endianness : Big
Codec ID : A_AC3
Duration : 2h 1mn
Bit rate mode : Constant
Bit rate : 448 Kbps
Channel count : 6 channels
Channel positions : Front: L C R, Side: L R, LFE
Sampling rate : 48.0 KHz
Bit depth : 16 bits
Compression mode : Lossy
Delay relative to video : -5ms
Stream size : 390 MiB (20%)
Title : Surround
Language : Russian
Default : Yes
Forced : No

Text #1
ID : 3
Format : ASS
Codec ID : S_TEXT/ASS
Codec ID/Info : Advanced Sub Station Alpha
Compression mode : Lossless
Language : French
Default : No
Forced : No

Text #2
ID : 4
Format : ASS
Codec ID : S_TEXT/ASS
Codec ID/Info : Advanced Sub Station Alpha
Compression mode : Lossless
Language : French
Default : No
Forced : No 
Trailer