75
PUNTOS
Calificar
CALIFICA
Calificar
Califica y/o escribe un comentario sobre la película.
Comentarios en el foroFORO

Den 12. mann (2017)

Eran 12 saboteadores. Los Nazis mataron a 11 de ellos. Esta es la auténtica historia del que consiguió escapar.
Director Harald Zwart
Actores Thomas Gullestad, Jonathan Rhys Meyers, Marie Blokhus
Duración 135 min
País Norway
Streaming (Servicio externo)
Grupo: titler
Versión: BDRip x264 720p AAC
Tamaño: 1.4 GB
SOURCE: Den 12 mann 2017 NORDiC 1080p BluRay x264 - RAPiDCOWS

 
https://www.imdb.com/title/tt3300980/


JAN BAALSRUD
------------------------ 
https://en.wikipedia.org/wiki/Jan_Baalsrud


- SAMPLE: Yes

- SUBTITLE: English

- LANGUAGE / AUDIO:  English, Norwegian, German, Saami


SCREENSHOTS:
------------------- 
https://imgur.com/a/MfJ91W3


DIRECTOR: Harald Zwart


CAST: Thomas Gullestad, Jonathan Rhys Meyers, Marie Blokhus, Mads Sjøgård Pettersen, Vegar Hoel, Håkon T. Nielsen, ...


PLOT:
-----------
They were 12 saboteurs. The Nazis killed 11 of them. This is the true story of the one who got away...

************************************

- Duration: 2h 15min

- Nominal bit rate: 1357 kb/s

- Res: 1280 x 536

- AR: 2.40:1

- FPS: 23.976

- Audio: AAC, 2 channels, 128 Kbps

************************************

General
-------------
Format : Matroska
Format version : Version 4 / Version 2
File size : 1.40 GiB
Duration : 2h 15min
Overall bit rate : 1482 kb/s
Encoded date : UTC 2018-05-14 13:27:48
Writing application : mkvmerge v23.0.0 ('The Bride Said No') 64-bit
Writing library : libebml v1.3.6 + libmatroska v1.4.9

Video
----------
Format : AVC
Format/Info : Advanced Video Codec
Format profile : [email protected]
Format settings : CABAC / 5 Ref Frames
Format settings, CABAC : Yes
Format settings, ReFrames : 5 frames
Codec ID : V_MPEG4/ISO/AVC
Duration : 2h 15min
Bit rate : 1357 kb/s
Width : 1280 pixels
Height : 536 pixels
Display aspect ratio : 2.40:1
Frame rate mode : Constant
Frame rate : 23.976 FPS
Color space : YUV
Chroma subsampling : 4:2:0
Bit depth : 8 bits
Scan type : Progressive
Bits/(Pixel*Frame) : 0.082
Stream size : 1.28 GiB (91%)
Writing library : x264 core 142
Encoding settings : cabac=1 / ref=5
Default : Yes
Forced : No

Audio
----------
Format : AAC
Format/Info : Advanced Audio Codec
Format profile : LC
Codec ID : A_AAC-2
Duration : 2h 15min
Bit rate : 128 kb/s
Channel(s) : 2 channels
Channel positions : Front: L R
Sampling rate : 48.0 kHz
Compression mode : Lossy
Stream size : 124 MiB (9%)
Title : Stereo
Language : Norwegian
Default : Yes
Forced : No

Subtitulos

Grupo: RAPiDCOWS
Versión: BDRip x264 1080p DTS
Tamaño: 9.8 GB
NAME.........: Den 12. mann

IMDb.........: http://www.imdb.com/title/tt3300980/
RATiNG.......: 7.8/10 from 1492 users
RELEASE YEAR.: 2017
GENRE........: War
DURATiON.....: 135 min
SiZE.........: 9.83 GB

LANGUAGE.....: Norwegian
SUB-LANGUAGE.: Danish Finnish Norwegian Swedish
SUB-TYPE.....: Retail - Rippet og tilpasset af RAPiDCOWS

ViDEO CODEC..: AVC at 8890 Kbps 1920 x 808 2.376 at 23.976 fps
AUDiO CODEC..: DTS 5.1 at 1509 Kbps
SOURCE.......: Den.12.Mann.2017.NORWEGIAN.1080p.BluRay.x264-WASTE

Subtitulos

Grupo: LPD
Versión: BDRip x264 AAC
Tamaño: 675 MB
The.12th.Man.2017.BDRip.x264-LPD

Title         [ The 12th Man
Release.Date  [ 10/04/2018
Source        [ BR RETAIL
Release.Size  [ 47x15MB
Runtime       [ 2h 15mn
Video.Format  [ X264
Frame.Rate    [ 23.976 FPS
Aspect.Ratio  [ 720x302 *WS*
Bitrate       [ 682 kb/s
Subs          [ English

Subtitulos

Grupo: CiNEFiLE
Versión: BDRip x264 720p DTS
Tamaño: 5.5 GB
The.12th.Man.2017.720p.BluRay.x264-CiNEFiLE

Release Date ......: 10/04/2018
Video .............. x264 @ 4253
Audio .............. German DTS 1509kbit/s 5.1
Subtitles .......... English
Length ............. 135 min 45 sec
Size ............... 5.46 gigs
https://www.imdb.com/title/tt3300980/

Subtitulos

Grupo: CiNEFiLE
Versión: BDRip x264 1080p DTS
Tamaño: 9.8 GB
The.12th.Man.2017.1080p.BluRay.x264-CiNEFiLE

Release Date ......: 10/04/2018
Video .............. x264 @ 8862
Audio .............. German DTS 1509kbit/s 5.1
Subtitles .......... English
Length ............. 135 min 45 sec
Size ............... 9.83 gigs
https://www.imdb.com/title/tt3300980/

Subtitulos

Trailer