51
PUNTOS
Calificar
CALIFICA
Calificar
Califica y/o escribe un comentario sobre la película.
Comentarios en el foroFORO

Father of the Year (2018)

Dos universitarios recién graduados discuten borrachos sobre quién de sus padres ganaría una pelea. Debate que desata el caos cuando sus padres se lo toman en serio.
Director Tyler Spindel
Actores David Spade, Nat Faxon, Joey Bragg
Duración 94 min
País USA
Streaming (Servicio externo)
Grupo: STRiFE
Versión: WEB x264 EAC3
Tamaño: 1.3 GB
Father.of.the.Year.2018.WEB.x264-STRiFE
	
Video
ID : 1
Format : AVC
Format/Info : Advanced Video Codec
Format profile : [email protected]
Format settings : CABAC / 3 Ref Frames
Format settings, CABAC : Yes
Format settings, RefFrames : 3 frames
Codec ID : V_MPEG4/ISO/AVC
Duration : 1 h 34 min
Bit rate mode : Variable
Bit rate : 1 870 kb/s
Maximum bit rate : 2 805 kb/s
Width : 720 pixels
Height : 480 pixels
Display aspect ratio : 16:9
Frame rate mode : Constant
Frame rate : 23.976 (24000/1001) FPS
Color space : YUV
Chroma subsampling : 4:2:0
Bit depth : 8 bits
Scan type : Progressive
Bits/(Pixel*Frame) : 0.226
Stream size : 1.22 GiB (93%)
Writing library : x264 core 148 r2715 7e75228
Encoding settings : cabac=1 / ref=3 / deblock=1:0:0 / analyse=0x1:0x111 / me=umh / subme=10 / psy=1 / psy_rd=1.00:0.00 / mixed_ref=1 / me_range=24 / chroma_me=1 / trellis=2 / 8x8dct=0 / cqm=0 / deadzone=21,11 / fast_pskip=1 / chroma_qp_offset=-2 / threads=8 / lookahead_threads=1 / sliced_threads=0 / nr=0 / decimate=1 / interlaced=0 / bluray_compat=0 / stitchable=1 / constrained_intra=0 / bframes=2 / b_pyramid=0 / b_adapt=2 / b_bias=0 / direct=3 / weightb=1 / open_gop=0 / weightp=2 / keyint=48 / keyint_min=25 / scenecut=0 / intra_refresh=0 / rc_lookahead=48 / rc=2pass / mbtree=1 / bitrate=1870 / ratetol=1.0 / qcomp=0.50 / qpmin=6 / qpmax=51 / qpstep=4 / cplxblur=20.0 / qblur=0.5 / vbv_maxrate=2805 / vbv_bufsize=3740 / nal_hrd=vbr / filler=0 / ip_ratio=1.40 / aq=1:1.00
Default : Yes
Forced : No

Audio
ID : 2
Format : E-AC-3
Format/Info : Enhanced Audio Coding 3
Format settings, Endianness : Big
Codec ID : A_EAC3
Duration : 1 h 34 min
Bit rate mode : Constant
Bit rate : 128 kb/s
Channel(s) : 2 channels
Channel positions : Front: L R
Sampling rate : 48.0 kHz
Frame rate : 187.500 FPS (256 SPF)
Compression mode : Lossy
Stream size : 86.6 MiB (6%)
Language : English
Service kind : Complete Main
Default : Yes
Forced : No

Text #1
ID : 3
Format : UTF-8
Codec ID : S_TEXT/UTF8
Codec ID/Info : UTF-8 Plain Text
Duration : 1 h 32 min
Bit rate : 88 b/s
Count of elements : 1697
Stream size : 59.9 KiB (0%)
Language : English
Default : No
Forced : No

Text #2
ID : 4
Format : UTF-8
Codec ID : S_TEXT/UTF8
Codec ID/Info : UTF-8 Plain Text
Duration : 1 h 33 min
Bit rate : 74 b/s
Count of elements : 1534
Stream size : 50.7 KiB (0%)
Title : European
Language : Spanish
Default : No
Forced : No

Text #3
ID : 5
Format : UTF-8
Codec ID : S_TEXT/UTF8
Codec ID/Info : UTF-8 Plain Text
Duration : 1 h 33 min
Bit rate : 69 b/s
Count of elements : 1482
Stream size : 47.2 KiB (0%)
Language : French
Default : No
Forced : No

Text #4
ID : 6
Format : UTF-8
Codec ID : S_TEXT/UTF8
Codec ID/Info : UTF-8 Plain Text
Duration : 1 h 33 min
Bit rate : 61 b/s
Count of elements : 1548
Stream size : 42.1 KiB (0%)
Language : Polish
Default : No
Forced : No

Text #5
ID : 7
Format : UTF-8
Codec ID : S_TEXT/UTF8
Codec ID/Info : UTF-8 Plain Text
Duration : 1 h 33 min
Bit rate : 79 b/s
Count of elements : 1556
Stream size : 54.0 KiB (0%)
Language : Portuguese
Default : No
Forced : No

Subtitulos

Grupo: DEFLATE
Versión: WEBRip x264 720p PROPER AC3
Tamaño: 3.6 GB
Father.of.the.Year.2018.PROPER.720p.WEBRip.X264-DEFLATE

Release Date : 2018-07-21
URL          : https://www.imdb.com/title/tt7256866/

Duration     : 01:33:45.632000
Video        : X264 (CRF 18.0, 8 bit, 4:2:0)
Resolution   : 1280x720 (1.778:1 / 16:9) @ 24,000/1,001 fps
Audio        : AC3+ @ 640 kb/s (5.1)
Language     : English
Subtitles    : English, English (SDH), Arabic, Bulgarian, Chinese (Simplified), Chinese
(Traditional), Danish, Dutch, Finnish, French, German, Greek, Hebrew,
Indonesian, Italian, Japanese, Korean, Norwegian, Polish, Portuguese,
Portuguese (Brazilian), Romanian, Russian, Spanish, Spanish, Swedish,
Thai, Turkish
Size         : 3,734.473 MB (3,915,878,702 bytes)
Notes        : Other group didn't use the highest available audio

Subtitulos

Grupo: DEFLATE
Versión: WEBRip x264 1080p PROPER AC3
Tamaño: 9.1 GB
Father.of.the.Year.2018.PROPER.1080p.WEBRip.X264-DEFLATE

Release Date : 2018-07-21
URL          : https://www.imdb.com/title/tt7256866/

Duration     : 01:33:45.632000
Video        : X264 (CRF 18.0, 8 bit, 4:2:0)
Resolution   : 1920x1080 (1.778:1 / 16:9) @ 24,000/1,001 fps
Audio        : AC3+ @ 640 kb/s (5.1)
Language     : English
Subtitles    : English, English (SDH), Arabic, Bulgarian, Chinese (Simplified), Chinese
(Traditional), Danish, Dutch, Finnish, French, German, Greek, Hebrew,
Indonesian, Italian, Japanese, Korean, Norwegian, Polish, Portuguese,
Portuguese (Brazilian), Romanian, Russian, Spanish, Spanish, Swedish,
Thai, Turkish
Size         : 9,332.845 MB (9,786,196,883 bytes)
Notes        : CRF+1.0 to stay below 15Mbit/s

Other group didn't use the highest available audio

Subtitulos

Trailer