73
PUNTOS
Calificar
CALIFICA
Calificar
Califica y/o escribe un comentario sobre la película.
Comentarios en el foroFORO

The Tale (2018)

Una exploración de la memoria de una mujer cuando ésta se ve obligada a revaluar su primera relación sexual y sus historias basadas en el autoengaño.
Director Jennifer Fox
Actores Elizabeth Debicki, Laura Dern, Frances Conroy
Duración 114 min
País USA, Germany
Streaming (Servicio externo)
Grupo: NTG
Versión: WEBRip x264 720p E-AC3
Tamaño: 3.1 GB
General
Unique ID : 50406304514062393976659365875503102707 (0x25EBE6B01FFC9335D377F074F1407AF3)
Complete name : The.Tale.2018.720p.AMZN.WEB-DL.DDP5.1.H.264-NTG.mkv
Format : Matroska
Format version : Version 4 / Version 2
File size : 3.12 GiB
Duration : 1 h 54 min
Overall bit rate : 3 887 kb/s
Encoded date : UTC 2018-05-27 05:28:37
Writing application : mkvmerge v21.0.0 ('Tardigrades Will Inherit The Earth') 64-bit
Writing library : libebml v1.3.5 + libmatroska v1.4.8

Video
ID : 1
Format : AVC
Format/Info : Advanced Video Codec
Format profile : [email protected]
Format settings : CABAC / 5 Ref Frames
Format settings, CABAC : Yes
Format settings, ReFrames : 5 frames
Codec ID : V_MPEG4/ISO/AVC
Duration : 1 h 54 min
Bit rate : 3 245 kb/s
Width : 1 280 pixels
Height : 720 pixels
Display aspect ratio : 16:9
Frame rate mode : Constant
Frame rate : 23.976 (24000/1001) FPS
Color space : YUV
Chroma subsampling : 4:2:0
Bit depth : 8 bits
Scan type : Progressive
Bits/(Pixel*Frame) : 0.147
Stream size : 2.61 GiB (83%)
Default : Yes
Forced : No
Color range : Limited
Color primaries : BT.709
Transfer characteristics : BT.709
Matrix coefficients : BT.709

Audio
ID : 2
Format : E-AC-3
Format/Info : Enhanced Audio Coding 3
Codec ID : A_EAC3
Duration : 1 h 54 min
Bit rate mode : Constant
Bit rate : 640 kb/s
Channel(s) : 6 channels
Channel positions : Front: L C R, Side: L R, LFE
Sampling rate : 48.0 kHz
Frame rate : 187.500 FPS (256 SPF)
Compression mode : Lossy
Stream size : 526 MiB (16%)
Language : English
Service kind : Complete Main
Default : Yes
Forced : No

Text #1
ID : 3
Format : UTF-8
Codec ID : S_TEXT/UTF8
Codec ID/Info : UTF-8 Plain Text
Duration : 1 h 53 min
Bit rate : 67 b/s
Count of elements : 1936
Stream size : 56.1 KiB (0%)
Language : English
Default : No
Forced : No

Text #2
ID : 4
Format : UTF-8
Codec ID : S_TEXT/UTF8
Codec ID/Info : UTF-8 Plain Text
Duration : 1 h 54 min
Bit rate : 71 b/s
Count of elements : 2074
Stream size : 59.6 KiB (0%)
Title : SDH
Language : English
Default : No
Forced : No

Subtitulos

Grupo: NTG
Versión: WEBRip x264 1080p E-AC3
Tamaño: 8.7 GB
General
Unique ID : 192580442591009406981180392655308744119 (0x90E1A4E452C457631FC02E7A50B865B7)
Complete name : The.Tale.2018.1080p.AMZN.WEB-DL.DDP5.1.H.264-NTG.mkv
Format : Matroska
Format version : Version 4 / Version 2
File size : 8.68 GiB
Duration : 1 h 54 min
Overall bit rate : 10.8 Mb/s
Encoded date : UTC 2018-05-27 05:25:03
Writing application : mkvmerge v21.0.0 ('Tardigrades Will Inherit The Earth') 64-bit
Writing library : libebml v1.3.5 + libmatroska v1.4.8

Video
ID : 1
Format : AVC
Format/Info : Advanced Video Codec
Format profile : [email protected]
Format settings : CABAC / 4 Ref Frames
Format settings, CABAC : Yes
Format settings, ReFrames : 4 frames
Codec ID : V_MPEG4/ISO/AVC
Duration : 1 h 54 min
Bit rate : 10.2 Mb/s
Width : 1 920 pixels
Height : 1 080 pixels
Display aspect ratio : 16:9
Frame rate mode : Constant
Frame rate : 23.976 (24000/1001) FPS
Color space : YUV
Chroma subsampling : 4:2:0
Bit depth : 8 bits
Scan type : Progressive
Bits/(Pixel*Frame) : 0.205
Stream size : 8.17 GiB (94%)
Default : Yes
Forced : No
Color range : Limited
Color primaries : BT.709
Transfer characteristics : BT.709
Matrix coefficients : BT.709

Audio
ID : 2
Format : E-AC-3
Format/Info : Enhanced Audio Coding 3
Codec ID : A_EAC3
Duration : 1 h 54 min
Bit rate mode : Constant
Bit rate : 640 kb/s
Channel(s) : 6 channels
Channel positions : Front: L C R, Side: L R, LFE
Sampling rate : 48.0 kHz
Frame rate : 187.500 FPS (256 SPF)
Compression mode : Lossy
Stream size : 526 MiB (6%)
Language : English
Service kind : Complete Main
Default : Yes
Forced : No

Text #1
ID : 3
Format : UTF-8
Codec ID : S_TEXT/UTF8
Codec ID/Info : UTF-8 Plain Text
Duration : 1 h 53 min
Bit rate : 67 b/s
Count of elements : 1936
Stream size : 56.1 KiB (0%)
Language : English
Default : No
Forced : No

Text #2
ID : 4
Format : UTF-8
Codec ID : S_TEXT/UTF8
Codec ID/Info : UTF-8 Plain Text
Duration : 1 h 54 min
Bit rate : 71 b/s
Count of elements : 2074
Stream size : 59.6 KiB (0%)
Title : SDH
Language : English
Default : No
Forced : No

Subtitulos

Trailer