77
PUNTOS
Calificar
CALIFICA
Calificar
Califica y/o escribe un comentario sobre la película.
Comentarios en el foroFORO

Jusqu'à la garde (2017)

Myriam y Antoine Besson se han divorciado, y ella solicita la custodia exclusiva de su hijo Julien para protegerlo de un padre al que acusa de violento. Antoine defiende su caso como un padre despreciado, y la juez del caso sentencia a favor de la custodia compartida. Rehén del creciente conflicto entre sus padres, el joven Julien se ve empujado al límite.
Director Xavier Legrand
Actores Léa Drucker, Denis Ménochet, Thomas Gioria
Duración 93 min
País France
Streaming (Servicio externo)
Grupo: worldmkv
Versión: BDRip x264 720p AAC
Tamaño: 960 MB
General
Unique ID                                : 146350920648596373677910823104884495058 (0x6E1A297BE26D7EA371AD2338E26FD2D2)
Complete name                            : Jusqu.a.La.Garde.2017.FRENCH.720p.BluRay.x264-worldmkv.mkv
Format                                   : Matroska
Format version                           : Version 4 / Version 2
File size                                : 962 MiB
Duration                                 : 1 h 33 min
Overall bit rate                         : 1 437 kb/s
Writing application                      : Lavf58.12.100
Writing library                          : Lavf58.12.100
ErrorDetectionType                       : Per level 1

Video
ID                                       : 1
Format                                   : AVC
Format/Info                              : Advanced Video Codec
Format profile                           : [email protected]
Format settings                          : CABAC / 4 Ref Frames
Format settings, CABAC                   : Yes
Format settings, ReFrames                : 4 frames
Codec ID                                 : V_MPEG4/ISO/AVC
Duration                                 : 1 h 33 min
Nominal bit rate                         : 1 356 kb/s
Width                                    : 1 280 pixels
Height                                   : 540 pixels
Display aspect ratio                     : 2.40:1
Frame rate mode                          : Constant
Frame rate                               : 25.000 FPS
Color space                              : YUV
Chroma subsampling                       : 4:2:0
Bit depth                                : 8 bits
Scan type                                : Progressive
Bits/(Pixel*Frame)                       : 0.078
Writing library                          : x264 core 148 r2643 5c65704
Encoding settings                        : cabac=1 / ref=1 / deblock=1:0:0 / analyse=0x3:0x3 / me=dia / subme=1 / psy=1 / psy_rd=1.00:0.00 / mixed_ref=0 / me_range=16 / chroma_me=1 / trellis=0 / 8x8dct=1 / cqm=0 / deadzone=21,11 / fast_pskip=1 / chroma_qp_offset=0 / threads=12 / lookahead_threads=2 / sliced_threads=0 / nr=0 / decimate=1 / interlaced=0 / bluray_compat=0 / constrained_intra=0 / bframes=3 / b_pyramid=2 / b_adapt=1 / b_bias=0 / direct=1 / weightb=1 / open_gop=0 / weightp=1 / keyint=250 / keyint_min=25 / scenecut=40 / intra_refresh=0 / rc=abr / mbtree=0 / bitrate=1356 / ratetol=1.0 / qcomp=0.60 / qpmin=0 / qpmax=69 / qpstep=4 / ip_ratio=1.40 / pb_ratio=1.30 / aq=1:1.00
Language                                 : English
Default                                  : Yes
Forced                                   : No

Audio
ID                                       : 2
Format                                   : AAC
Format/Info                              : Advanced Audio Codec
Format profile                           : LC
Codec ID                                 : A_AAC-2
Duration                                 : 1 h 33 min
Channel(s)                               : 1 channel
Channel positions                        : Front: C
Sampling rate                            : 44.1 kHz
Frame rate                               : 43.066 FPS (1024 SPF)
Compression mode                         : Lossy
Title                                    : French DTS 1509kbps
Writing library                          : Lavc58.18.100 libfdk_aac
Language                                 : French
Default                                  : Yes
Forced                                   : No

Menu
00:00:00.000                             : :00:00:00.000
00:16:52.625                             : :00:16:52.625
00:20:52.125                             : :00:20:52.125
00:33:02.667                             : :00:33:02.667
00:43:08.917                             : :00:43:08.917
00:51:42.167                             : :00:51:42.167
01:03:59.292                             : :01:03:59.292
01:12:13.292                             : :01:12:13.292
01:21:14.750                             : :01:21:14.750

Subtitulos

Grupo: PREUMS
Versión: WEB H.264 1080p AC3
Tamaño: 3.1 GB
General
Unique ID                      : 50572552420622528106934358831775441890 (0x260BEB57B5BCA5323F6F5AC27C2163E2)
Complete name                  :  Jusqu.A.La.Garde.2018.FRENCH.1080p.WEB.H264-PREUMS.mkv
Format                         : Matroska
Format version                 : Version 4 / Version 2
File size                      : 3.10 GiB
Duration                       : 1 h 29 min
Overall bit rate               : 4 945 kb/s
Movie name                     : PREUMS
Encoded date                   : UTC 2018-06-26 21:20:15
Writing application            : mkvmerge v24.0.0 ('Beyond The Pale') 64-bit
Writing library                : libebml v1.3.6 + libmatroska v1.4.9
FileExtension_Invalid          : mkv mk3d mka mks

Video
ID                             : 1
Format                         : AVC
Format/Info                    : Advanced Video Codec
Format profile                 : [email protected]
Format settings                : CABAC / 5 Ref Frames
Format settings, CABAC         : Yes
Format settings, ReFrames      : 5 frames
Codec ID                       : V_MPEG4/ISO/AVC
Duration                       : 1 h 29 min
Bit rate                       : 4 463 kb/s
Width                          : 1 920 pixels
Height                         : 804 pixels
Display aspect ratio           : 2.40:1
Frame rate mode                : Constant
Frame rate                     : 25.000 FPS
Color space                    : YUV
Chroma subsampling             : 4:2:0
Bit depth                      : 8 bits
Scan type                      : Progressive
Bits/(Pixel*Frame)             : 0.116
Stream size                    : 2.80 GiB (90%)
Title                          : PREUMS
Language                       : French
Default                        : Yes
Forced                         : No
Color range                    : Limited
Color primaries                : BT.709
Transfer characteristics       : BT.709
Matrix coefficients            : BT.709

Audio
ID                             : 2
Format                         : AC-3
Format/Info                    : Audio Coding 3
Codec ID                       : A_AC3
Duration                       : 1 h 29 min
Bit rate mode                  : Constant
Bit rate                       : 384 kb/s
Channel(s)                     : 6 channels
Channel positions              : Front: L C R, Side: L R, LFE
Sampling rate                  : 48.0 kHz
Frame rate                     : 31.250 FPS (1536 SPF)
Bit depth                      : 16 bits
Compression mode               : Lossy
Stream size                    : 247 MiB (8%)
Title                          : VF 5.1
Language                       : French
Service kind                   : Complete Main
Default                        : Yes
Forced                         : No

Menu
00:00:00.000                   : en:Chapitre 1
00:08:51.720                   : en:Chapitre 2
00:17:54.800                   : en:Chapitre 3
00:26:53.920                   : en:Chapitre 4
00:35:47.440                   : en:Chapitre 5
00:44:49.640                   : en:Chapitre 6
00:53:47.240                   : en:Chapitre 7
01:02:48.320                   : en:Chapitre 8
01:11:51.120                   : en:Chapitre 9
01:20:53.960                   : en:Chapitre 10

Subtitulos

Grupo: EXTREME
Versión: BDRip x264
Tamaño: 375 MB
General
Unique ID                                : 241675066115933208813280981723551877886 (0xB5D0ECB6CF1B183187EB41ED8443CAFE)
Complete name                            : Jusqu.A.La.Garde.2018.FRENCH.BDRip.x264-EXTREME.mkv
Format                                   : Matroska
Format version                           : Version 4 / Version 2
File size                                : 381 MiB
Duration                                 : 1 h 29 min
Overall bit rate                         : 594 kb/s
Movie name                               : PREUMS
Encoded date                             : UTC 2018-06-27 13:00:17
Writing application                      : mkvmerge v7.8.0 ('River Man') 32bit built on Mar 27 2015 16:18:02
Writing library                          : libebml v1.3.1 + libmatroska v1.4.2

Video
ID                                       : 2
Format                                   : AVC
Format/Info                              : Advanced Video Codec
Format profile                           : [email protected]
Format settings                          : CABAC / 4 Ref Frames
Format settings, CABAC                   : Yes
Format settings, ReFrames                : 4 frames
Codec ID                                 : V_MPEG4/ISO/AVC
Duration                                 : 1 h 29 min
Bit rate                                 : 464 kb/s
Width                                    : 720 pixels
Height                                   : 304 pixels
Display aspect ratio                     : 2.35:1
Frame rate mode                          : Constant
Frame rate                               : 25.000 FPS
Color space                              : YUV
Chroma subsampling                       : 4:2:0
Bit depth                                : 8 bits
Scan type                                : Progressive
Bits/(Pixel*Frame)                       : 0.085
Stream size                              : 298 MiB (78%)
Writing library                          : x264 core 152 r2851 ba24899
Encoding settings                        : cabac=1 / ref=2 / deblock=1:0:0 / analyse=0x3:0x113 / me=hex / subme=6 / psy=1 / psy_rd=1.00:0.00 / mixed_ref=1 / me_range=16 / chroma_me=1 / trellis=1 / 8x8dct=1 / cqm=0 / deadzone=21,11 / fast_pskip=1 / chroma_qp_offset=-2 / threads=9 / lookahead_threads=1 / sliced_threads=0 / nr=0 / decimate=1 / interlaced=0 / bluray_compat=0 / constrained_intra=0 / bframes=3 / b_pyramid=2 / b_adapt=1 / b_bias=0 / direct=1 / weightb=1 / open_gop=0 / weightp=1 / keyint=250 / keyint_min=25 / scenecut=40 / intra_refresh=0 / rc_lookahead=30 / rc=crf / mbtree=1 / crf=19.0 / qcomp=0.60 / qpmin=0 / qpmax=69 / qpstep=4 / vbv_maxrate=17500 / vbv_bufsize=17500 / crf_max=0.0 / nal_hrd=none / filler=0 / ip_ratio=1.40 / aq=1:1.00
Default                                  : Yes
Forced                                   : No

Audio
ID                                       : 1
Format                                   : MPEG Audio
Format version                           : Version 1
Format profile                           : Layer 3
Format settings                          : Joint stereo
Codec ID                                 : A_MPEG/L3
Codec ID/Hint                            : MP3
Duration                                 : 1 h 29 min
Bit rate mode                            : Constant
Bit rate                                 : 128 kb/s
Channel(s)                               : 2 channels
Sampling rate                            : 48.0 kHz
Frame rate                               : 41.667 FPS (1152 SPF)
Compression mode                         : Lossy
Stream size                              : 82.3 MiB (22%)
Writing library                          : LAME3.100
Encoding settings                        : -m j -V 4 -q 2 -lowpass 17 -b 128
Language                                 : French
Default                                  : Yes
Forced                                   : No

Menu
00:00:00.000                             : en:Chapitre 1
00:08:51.720                             : en:Chapitre 2
00:17:54.800                             : en:Chapitre 3
00:26:53.920                             : en:Chapitre 4
00:35:47.440                             : en:Chapitre 5
00:44:49.640                             : en:Chapitre 6
00:53:47.240                             : en:Chapitre 7
01:02:48.320                             : en:Chapitre 8
01:11:51.120                             : en:Chapitre 9
01:20:53.960                             : en:Chapitre 10
Grupo: DEPTH
Versión: BDRip x264 AAC
Tamaño: 375 MB
Custody.2017.BDRip.x264-DEPTH

date   13/09/2018
size   368 mb
length   1 h 34 min
video   720x302 crf19 @ 424 kb/s
audio   french aac-lc 2.0 @ 121 kb/s
subs   english
url   https://www.imdb.com/title/tt6002232

Subtitulos

Grupo: DEPTH
Versión: BDRip x264 720p DTS
Tamaño: 4.4 GB
Custody.2017.720p.BluRay.x264-DEPTH

date   13/09/2018
size   4466 mb
length   1 h 34 min
video   1280x536 2pass @ 5135 kb/s
audio   french dts 5.1 @ 1509 kb/s
subs   english
url   https://www.imdb.com/title/tt6002232

Subtitulos

Grupo: DEPTH
Versión: BDRip x264 1080p DTS
Tamaño: 8.7 GB
Custody.2017.1080p.BluRay.x264-DEPTH

date   13/09/2018
size   8941 mb
length   1 h 34 min
video   1920x808 2pass @ 11796 kb/s
audio   french dts 5.1 @ 1509 kb/s
subs   english
url   https://www.imdb.com/title/tt6002232

Subtitulos

Trailer