73
PUNTOS
Calificar
CALIFICA
Calificar
Califica y/o escribe un comentario sobre la película.
Comentarios en el foroFORO

La promesse de l'aube (2017)

Adaptación de la novela autobiográfica de Romain Gary, en el que recuerda su juventud en Lituania, su éxodo con su familia al sur de Francia para escapar de las consecuencias de la llegada al poder de Hitler en Alemania y su carrera en las Fuerzas Aéreas francesas.
Director Eric Barbier
Actores Pierre Niney, Charlotte Gainsbourg, Didier Bourdon, Jean-Pierre Darroussin
Duración 131 min
Streaming (Servicio externo)
Grupo: LAPROMESSE
Versión: BDRip x264 720p DTS
Tamaño: 5.4 GB
General
Unique ID : 0 (x0x)
Complete name : La.Promesse.De.L.Aube.2017.FRENCH.720p.BluRay.x264-LAPROMESSE.mkv
Format : Matroska
Format version : Version 2
File size : 5.45 GiB
Duration : 2 h 10 min
Overall bit rate : 5 978 kb/s
Writing application : mkvmerge v6.6.0 ('The Edge Of The In Between') built on Dec 1 2013 17:55:00
Writing library : libebml v1.3.0 + libmatroska v1.4.1

Video
ID : 1
Format : AVC
Format/Info : Advanced Video Codec
Format profile : [email protected]
Format settings, CABAC : Yes
Format settings, RefFrames : 5 frames
Codec ID : V_MPEG4/ISO/AVC
Duration : 2 h 10 min
Bit rate : 4 478 kb/s
Width : 1 280 pixels
Height : 536 pixels
Display aspect ratio : 2.40:1
Frame rate mode : Constant
Frame rate : 23.976 (24000/1001) FPS
Color space : YUV
Chroma subsampling : 4:2:0
Bit depth : 8 bits
Scan type : Progressive
Bits/(Pixel*Frame) : 0.272
Stream size : 3.96 GiB (73%)
Writing library : x264 core 155 r2901 7d0ff22
Encoding settings : cabac=1 / ref=5 / deblock=1:0:0 / analyse=0x3:0x113 / me=umh / subme=8 / psy=1 / psy_rd=1.00:0.00 / mixed_ref=1 / me_range=16 / chroma_me=1 / trellis=1 / 8x8dct=1 / cqm=0 / deadzone=21,11 / fast_pskip=1 / chroma_qp_offset=-2 / threads=12 / lookahead_threads=2 / sliced_threads=0 / nr=0 / decimate=1 / interlaced=0 / bluray_compat=0 / constrained_intra=0 / bframes=3 / b_pyramid=2 / b_adapt=2 / b_bias=0 / direct=3 / weightb=1 / open_gop=0 / weightp=2 / keyint=250 / keyint_min=23 / scenecut=40 / intra_refresh=0 / rc_lookahead=50 / rc=2pass / mbtree=1 / bitrate=4478 / ratetol=1.0 / qcomp=0.60 / qpmin=0 / qpmax=69 / qpstep=4 / cplxblur=20.0 / qblur=0.5 / ip_ratio=1.40 / aq=1:1.00
Language : English
Default : Yes
Forced : No

Audio
ID : 2
Format : DTS
Format/Info : Digital Theater Systems
Mode : 16
Format settings, Endianness : Big
Codec ID : A_DTS
Duration : 2 h 10 min
Bit rate mode : Constant
Bit rate : 1 509 kb/s
Channel(s) : 6 channels
Channel positions : Front: L C R, Side: L R, LFE
Sampling rate : 48.0 kHz
Frame rate : 93.750 FPS (512 SPF)
Bit depth : 24 bits
Compression mode : Lossy
Stream size : 1.38 GiB (25%)
Title : French
Language : French
Default : Yes
Forced : No

Text
ID : 3
Format : UTF-8
Codec ID : S_TEXT/UTF8
Codec ID/Info : UTF-8 Plain Text
Title : French Forced
Language : French
Default : Yes
Forced : Yes

Menu
00:00:00.000 : en:00:00:00.000
00:09:39.913 : en:00:09:39.913
00:15:40.731 : en:00:15:40.731
00:22:33.811 : en:00:22:33.811
00:31:14.873 : en:00:31:14.873
00:38:49.160 : en:00:38:49.160
00:49:22.918 : en:00:49:22.918
00:57:00.125 : en:00:57:00.125
01:06:58.348 : en:01:06:58.348
01:16:06.061 : en:01:16:06.061
01:28:28.094 : en:01:28:28.094
01:35:04.449 : en:01:35:04.449
01:42:56.670 : en:01:42:56.670
01:52:08.347 : en:01:52:08.347
01:57:05.227 : en:01:57:05.227
02:05:14.424 : en:02:05:14.424

Subtitulos

Trailer