71
PUNTOS
Calificar
CALIFICA
Calificar
Califica y/o escribe un comentario sobre la película.
Comentarios en el foroFORO

Western (2017)

Una cuadrilla de obreros alemanes sienta campamento en un pueblo búlgaro para levantar una central hidráulica. Molesta el descaro zafio de su despliegue, ofende la saña eficiente con que desarraigan el paisaje, y agravian con sus sudores masculinos de beberse la paga y silbar agudo al paso de las chicas. Va a estallar el conflicto...
Director Valeska Grisebach
Actores Meinhard Neumann, Reinhardt Wetrek, Syuleyman Alilov Letifov, Veneta Fragnova
Duración 121 min
Streaming (Servicio externo)
Grupo: LPD
Versión: DVDRip x264 AAC LIMITED
Tamaño: 1.1 GB
Western.2017.LiMiTED.DVDRip.x264-LPD

Title         [ Western
Release.Date  [ 08/29/2018
Source        [ DVD RETAIL
Release.Size  [ 79x15MB
Runtime       [ 2h 0mn
Video.Format  [ X264
Frame.Rate    [ 23.976 FPS
Aspect.Ratio  [ 720x388 *WS*
Bitrate       [ 1295 kb/s
Subs          [ English

Subtitulos

Grupo: SaL
Versión: WebRip x264 AAC 720p
Tamaño: 2.8 GB
General
Unique ID : 59688807247636522388088393863501023775 (0x2CE7A568455B9390F3A871A15C1D8A1F)
Complete name : Western.2017.WEB.x264.720p-SaL.mkv
Format : Matroska
Format version : Version 4 / Version 2
File size : 2.79 GiB
Duration : 2h 0mn
Overall bit rate : 3 311 Kbps
Encoded date : UTC 2018-01-24 00:29:39
Writing application : mkvmerge v20.0.0 ('I Am The Sun') 64-bit
Writing library : libebml v1.3.5 + libmatroska v1.4.8

Video
ID : 1
Format : AVC
Format/Info : Advanced Video Codec
Format profile : [email protected]
Format settings : CABAC / 5 Ref Frames
Format settings, CABAC : Yes
Format settings, ReFrames : 5 frames
Codec ID : V_MPEG4/ISO/AVC
Duration : 2h 0mn
Bit rate : 3 149 Kbps
Width : 1 280 pixels
Height : 720 pixels
Display aspect ratio : 16:9
Frame rate mode : Constant
Frame rate : 24.000 fps
Standard : PAL
Color space : YUV
Chroma subsampling : 4:2:0
Bit depth : 8 bits
Scan type : Progressive
Bits/(Pixel*Frame) : 0.142
Stream size : 2.65 GiB (95%)
Default : Yes
Forced : No
Color range : Limited

Audio
ID : 2
Format : AAC
Format/Info : Advanced Audio Codec
Format profile : LC
Codec ID : A_AAC-2
Duration : 2h 0mn
Bit rate : 160 Kbps
Channel(s) : 2 channels
Channel positions : Front: L R
Sampling rate : 44.1 KHz
Frame rate : 43.066 fps (1024 SPF)
Compression mode : Lossy
Delay relative to video : -42ms
Stream size : 138 MiB (5%)
Language : German
Default : Yes
Forced : No

Subtitulos

Grupo: USURY
Versión: BDRip x264 720p LIMITED DTS
Tamaño: 5.5 GB
Western.2017.LIMITED.720p.BluRay.x264-USURY

Video...: 1280x688 4973kb/s @ 24.000fps
Audio...: German 1509kb/s 6ch DTS
Subs....: English (muxed .srt)
Size....: 5595.90mb (5867731489bytes)
Runtime.: 2h 0mn
IMDb....: https://www.imdb.com/title/tt5157326

Subtitulos

Grupo: USURY
Versión: BDRip x264 1080p LIMITED DTS
Tamaño: 8.7 GB
Western.2017.LIMITED.1080p.BluRay.x264-USURY

Video...: 1920x1040 8865kb/s @ 24.000fps
Audio...: German 1509kb/s 6ch DTS
Subs....: English (muxed .srt)
Size....: 8955.18mb (9390183093bytes)
Runtime.: 2h 0mn
IMDb....: https://www.imdb.com/title/tt5157326

Subtitulos

Trailer