66
PUNTOS
Calificar
CALIFICA
Calificar
Califica y/o escribe un comentario sobre la película.
Comentarios en el foroFORO

Bird Box (2018)

Un lustro después de que una misteriosa presencia llevara al suicidio a una gran parte de la sociedad, una superviviente (Sandra Bullock) y sus dos hijos buscan desesperadamente el modo de salvarse.
Director Susanne Bier
Actores Sandra Bullock, Trevante Rhodes, John Malkovich, Sarah Paulson
Duración 124 min
Streaming (Servicio externo)
Grupo: STRiFE
Versión: WEBRip x264 E-AC3
Tamaño: 775 MB
Bird.Box.2018.WEBRip.x264-STRiFE

Video
ID : 1
Format : AVC
Format/Info : Advanced Video Codec
Format profile : [email protected]
Format settings : CABAC / 5 Ref Frames
Format settings, CABAC : Yes
Format settings, ReFrames : 5 frames
Codec ID : V_MPEG4/ISO/AVC
Duration : 2 h 4 min
Bit rate : 737 kb/s
Width : 720 pixels
Height : 300 pixels
Display aspect ratio : 2.40:1
Frame rate mode : Constant
Frame rate : 24.000 FPS
Color space : YUV
Chroma subsampling : 4:2:0
Bit depth : 8 bits
Scan type : Progressive
Bits/(Pixel*Frame) : 0.142
Stream size : 656 MiB (85%)
Writing library : x264 core 157 r2935 545de2f
Encoding settings : cabac=1 / ref=5 / deblock=1:-3:-3 / analyse=0x3:0x113 / me=hex / subme=8 / psy=1 / psy_rd=1.00:0.15 / mixed_ref=1 / me_range=16 / chroma_me=1 / trellis=2 / 8x8dct=1 / cqm=0 / deadzone=21,11 / fast_pskip=0 / chroma_qp_offset=-2 / threads=9 / lookahead_threads=1 / sliced_threads=0 / nr=0 / decimate=1 / interlaced=0 / bluray_compat=0 / constrained_intra=0 / bframes=3 / b_pyramid=2 / b_adapt=1 / b_bias=0 / direct=3 / weightb=1 / open_gop=0 / weightp=2 / keyint=250 / keyint_min=24 / scenecut=40 / intra_refresh=0 / rc_lookahead=50 / rc=crf / mbtree=1 / crf=19.0 / qcomp=0.60 / qpmin=0 / qpmax=69 / qpstep=4 / ip_ratio=1.40 / aq=3:0.80
Language : English
Default : Yes
Forced : No
Color range : Limited
Matrix coefficients : BT.709

Audio
ID : 2
Format : E-AC-3
Format/Info : Enhanced AC-3
Commercial name : Dolby Digital Plus
Codec ID : A_EAC3
Duration : 2 h 4 min
Bit rate mode : Constant
Bit rate : 128 kb/s
Channel(s) : 2 channels
Channel layout : L R
Sampling rate : 48.0 kHz
Frame rate : 31.250 FPS (1536 SPF)
Compression mode : Lossy
Stream size : 114 MiB (15%)
Language : English
Service kind : Complete Main
Default : Yes
Forced : No

Text #1
ID : 3
Format : UTF-8
Codec ID : S_TEXT/UTF8
Codec ID/Info : UTF-8 Plain Text
Duration : 1 h 59 min
Bit rate : 61 b/s
Count of elements : 1727
Stream size : 53.5 KiB (0%)
Language : English
Default : No
Forced : No

Text #2
ID : 4
Format : UTF-8
Codec ID : S_TEXT/UTF8
Codec ID/Info : UTF-8 Plain Text
Duration : 2 h 3 min
Bit rate : 41 b/s
Count of elements : 1443
Stream size : 37.2 KiB (0%)
Title : Brazilian
Language : Portuguese
Default : No
Forced : No

Text #3
ID : 5
Format : UTF-8
Codec ID : S_TEXT/UTF8
Codec ID/Info : UTF-8 Plain Text
Duration : 2 h 3 min
Bit rate : 73 b/s
Count of elements : 1405
Stream size : 66.8 KiB (0%)
Language : Bulgarian
Default : No
Forced : No

Text #4
ID : 6
Format : UTF-8
Codec ID : S_TEXT/UTF8
Codec ID/Info : UTF-8 Plain Text
Duration : 2 h 3 min
Bit rate : 41 b/s
Count of elements : 1420
Stream size : 37.4 KiB (0%)
Language : Danish
Default : No
Forced : No

Text #5
ID : 7
Format : UTF-8
Codec ID : S_TEXT/UTF8
Codec ID/Info : UTF-8 Plain Text
Duration : 2 h 3 min
Bit rate : 44 b/s
Count of elements : 1423
Stream size : 40.0 KiB (0%)
Language : Dutch
Default : No
Forced : No

Text #6
ID : 8
Format : UTF-8
Codec ID : S_TEXT/UTF8
Codec ID/Info : UTF-8 Plain Text
Duration : 2 h 3 min
Bit rate : 47 b/s
Count of elements : 1441
Stream size : 42.6 KiB (0%)
Title : European
Language : Spanish
Default : No
Forced : No

Text #7
ID : 9
Format : UTF-8
Codec ID : S_TEXT/UTF8
Codec ID/Info : UTF-8 Plain Text
Duration : 2 h 3 min
Bit rate : 40 b/s
Count of elements : 1325
Stream size : 36.9 KiB (0%)
Language : Finnish
Default : No
Forced : No

Text #8
ID : 10
Format : UTF-8
Codec ID : S_TEXT/UTF8
Codec ID/Info : UTF-8 Plain Text
Duration : 2 h 3 min
Bit rate : 43 b/s
Count of elements : 1395
Stream size : 39.8 KiB (0%)
Language : French
Default : No
Forced : No

Text #9
ID : 11
Format : UTF-8
Codec ID : S_TEXT/UTF8
Codec ID/Info : UTF-8 Plain Text
Duration : 2 h 3 min
Bit rate : 47 b/s
Count of elements : 1421
Stream size : 43.0 KiB (0%)
Language : German
Default : No
Forced : No

Text #10
ID : 12
Format : UTF-8
Codec ID : S_TEXT/UTF8
Codec ID/Info : UTF-8 Plain Text
Duration : 2 h 3 min
Bit rate : 77 b/s
Count of elements : 1416
Stream size : 70.4 KiB (0%)
Language : Greek
Default : No
Forced : No

Text #11
ID : 13
Format : UTF-8
Codec ID : S_TEXT/UTF8
Codec ID/Info : UTF-8 Plain Text
Duration : 2 h 3 min
Bit rate : 48 b/s
Count of elements : 1450
Stream size : 44.1 KiB (0%)
Language : Indonesian
Default : No
Forced : No

Text #12
ID : 14
Format : UTF-8
Codec ID : S_TEXT/UTF8
Codec ID/Info : UTF-8 Plain Text
Duration : 2 h 3 min
Bit rate : 49 b/s
Count of elements : 1451
Stream size : 44.8 KiB (0%)
Language : Italian
Default : No
Forced : No

Text #13
ID : 15
Format : UTF-8
Codec ID : S_TEXT/UTF8
Codec ID/Info : UTF-8 Plain Text
Duration : 2 h 3 min
Bit rate : 46 b/s
Count of elements : 1442
Stream size : 42.0 KiB (0%)
Language : Norwegian Bokmal
Default : No
Forced : No

Text #14
ID : 16
Format : UTF-8
Codec ID : S_TEXT/UTF8
Codec ID/Info : UTF-8 Plain Text
Duration : 2 h 3 min
Bit rate : 42 b/s
Count of elements : 1362
Stream size : 38.8 KiB (0%)
Language : Polish
Default : No
Forced : No

Text #15
ID : 17
Format : UTF-8
Codec ID : S_TEXT/UTF8
Codec ID/Info : UTF-8 Plain Text
Duration : 2 h 3 min
Bit rate : 48 b/s
Count of elements : 1538
Stream size : 44.3 KiB (0%)
Language : Portuguese
Default : No
Forced : No

Text #16
ID : 18
Format : UTF-8
Codec ID : S_TEXT/UTF8
Codec ID/Info : UTF-8 Plain Text
Duration : 2 h 3 min
Bit rate : 73 b/s
Count of elements : 1453
Stream size : 66.7 KiB (0%)
Language : Russian
Default : No
Forced : No

Text #17
ID : 19
Format : UTF-8
Codec ID : S_TEXT/UTF8
Codec ID/Info : UTF-8 Plain Text
Duration : 2 h 3 min
Bit rate : 42 b/s
Count of elements : 1431
Stream size : 38.3 KiB (0%)
Language : Spanish
Default : No
Forced : No

Text #18
ID : 20
Format : UTF-8
Codec ID : S_TEXT/UTF8
Codec ID/Info : UTF-8 Plain Text
Duration : 2 h 3 min
Bit rate : 43 b/s
Count of elements : 1410
Stream size : 39.7 KiB (0%)
Language : Swedish
Default : No
Forced : No

Text #19
ID : 21
Format : UTF-8
Codec ID : S_TEXT/UTF8
Codec ID/Info : UTF-8 Plain Text
Duration : 2 h 3 min
Bit rate : 48 b/s
Count of elements : 1440
Stream size : 43.8 KiB (0%)
Language : Turkish
Default : No
Forced : No

Subtitulos

Grupo: DEFLATE
Versión: WEBRip x264 720p E-AC3
Tamaño: 2.3 GB
Bird.Box.2018.720p.WEBRip.X264-DEFLATE

Release Date : 2018-12-21
URL          : https://www.imdb.com/title/tt2737304

Duration     : 02:03:48.000000
Video        : X264 (CRF 18.0, 8 bit, 4:2:0)
Resolution   : 1280x532 (2.406:1 / 320:133) @ 24/1 fps
Audio        : AC3++Atmos @ 448 kb/s (5.1)
Language     : English
Subtitles    : English, English (SDH), Arabic, Bulgarian, Chinese (Simplified), Chinese
(Traditional), Danish, Dutch, Finnish, French, German, Greek, Hebrew,
Indonesian, Italian, Japanese, Korean, Norwegian, Polish, Portuguese,
Portuguese (Brazilian), Romanian, Russian, Spanish, Spanish, Swedish,
Thai, Turkish
Size         : 3,025.583 MB (3,172,553,974 bytes)

Subtitulos

Grupo: DEFLATE
Versión: WEBRip x264 1080p E-AC3
Tamaño: 7.9 GB
Bird.Box.2018.1080p.WEBRip.X264-DEFLATE

Release Date : 2018-12-21
URL          : https://www.imdb.com/title/tt2737304

Duration     : 02:03:48.000000
Video        : X264 (CRF 17.0, 8 bit, 4:2:0)
Resolution   : 1920x800 (2.400:1 / 12:5) @ 24/1 fps
Audio        : AC3++Atmos @ 448 kb/s (5.1)
Language     : English
Subtitles    : English, English (SDH), Arabic, Bulgarian, Chinese (Simplified), Chinese
(Traditional), Danish, Dutch, Finnish, French, German, Greek, Hebrew,
Indonesian, Italian, Japanese, Korean, Norwegian, Polish, Portuguese,
Portuguese (Brazilian), Romanian, Russian, Spanish, Spanish, Swedish,
Thai, Turkish
Size         : 8,106.514 MB (8,500,295,513 bytes)

Subtitulos

Grupo: STRiFE
Versión: WEB x264 1080p INTERNAL E-AC3
Tamaño: 4.5 GB
Bird.Box.2018.iNTERNAL.1080p.WEB.x264-STRiFE
	
Video
ID : 1
Format : AVC
Format/Info : Advanced Video Codec
Format profile : [email protected]
Format settings : CABAC / 3 Ref Frames
Format settings, CABAC : Yes
Format settings, ReFrames : 3 frames
Codec ID : V_MPEG4/ISO/AVC
Duration : 2 h 4 min
Bit rate mode : Variable
Bit rate : 4 870 kb/s
Maximum bit rate : 7 305 kb/s
Width : 1 920 pixels
Height : 1 080 pixels
Display aspect ratio : 16:9
Frame rate mode : Constant
Frame rate : 24.000 FPS
Color space : YUV
Chroma subsampling : 4:2:0
Bit depth : 8 bits
Scan type : Progressive
Bits/(Pixel*Frame) : 0.098
Stream size : 4.13 GiB (91%)
Writing library : x264 core 148 r2715 7e75228
Encoding settings : cabac=1 / ref=3 / deblock=1:0:0 / analyse=0x1:0x111 / me=umh / subme=10 / psy=1 / psy_rd=1.00:0.00 / mixed_ref=1 / me_range=24 / chroma_me=1 / trellis=2 / 8x8dct=0 / cqm=0 / deadzone=21,11 / fast_pskip=1 / chroma_qp_offset=-2 / threads=8 / lookahead_threads=1 / sliced_threads=0 / nr=0 / decimate=1 / interlaced=0 / bluray_compat=0 / stitchable=1 / constrained_intra=0 / bframes=2 / b_pyramid=0 / b_adapt=2 / b_bias=0 / direct=3 / weightb=1 / open_gop=0 / weightp=2 / keyint=48 / keyint_min=25 / scenecut=0 / intra_refresh=0 / rc_lookahead=48 / rc=2pass / mbtree=1 / bitrate=4870 / ratetol=1.0 / qcomp=0.50 / qpmin=6 / qpmax=51 / qpstep=4 / cplxblur=20.0 / qblur=0.5 / vbv_maxrate=7305 / vbv_bufsize=9740 / nal_hrd=vbr / filler=0 / ip_ratio=1.40 / aq=1:1.00
Default : Yes
Forced : No

Audio
ID : 2
Format : E-AC-3 JOC
Format/Info : Enhanced AC-3 with Joint Object Coding
Commercial name : Dolby Digital Plus with Dolby Atmos
Codec ID : A_EAC3
Duration : 2 h 4 min
Bit rate mode : Constant
Bit rate : 448 kb/s
Channel(s) : 6 channels
Channel layout : L R C LFE Ls Rs
Sampling rate : 48.0 kHz
Frame rate : 31.250 FPS (1536 SPF)
Compression mode : Lossy
Stream size : 399 MiB (9%)
Language : English
Service kind : Complete Main
Default : Yes
Forced : No
Complexity index : 16
Number of dynamic objects : 15
Bed channel count : 1 channel
Bed channel configuration : LFE

Text #1
ID : 3
Format : UTF-8
Codec ID : S_TEXT/UTF8
Codec ID/Info : UTF-8 Plain Text
Duration : 1 h 59 min
Bit rate : 61 b/s
Count of elements : 1727
Stream size : 53.5 KiB (0%)
Language : English
Default : No
Forced : No

Text #2
ID : 4
Format : UTF-8
Codec ID : S_TEXT/UTF8
Codec ID/Info : UTF-8 Plain Text
Duration : 2 h 3 min
Bit rate : 41 b/s
Count of elements : 1443
Stream size : 37.2 KiB (0%)
Title : Brazilian
Language : Portuguese
Default : No
Forced : No

Text #3
ID : 5
Format : UTF-8
Codec ID : S_TEXT/UTF8
Codec ID/Info : UTF-8 Plain Text
Duration : 2 h 3 min
Bit rate : 73 b/s
Count of elements : 1405
Stream size : 66.8 KiB (0%)
Language : Bulgarian
Default : No
Forced : No

Text #4
ID : 6
Format : UTF-8
Codec ID : S_TEXT/UTF8
Codec ID/Info : UTF-8 Plain Text
Duration : 2 h 3 min
Bit rate : 41 b/s
Count of elements : 1420
Stream size : 37.4 KiB (0%)
Language : Danish
Default : No
Forced : No

Text #5
ID : 7
Format : UTF-8
Codec ID : S_TEXT/UTF8
Codec ID/Info : UTF-8 Plain Text
Duration : 2 h 3 min
Bit rate : 44 b/s
Count of elements : 1423
Stream size : 40.0 KiB (0%)
Language : Dutch
Default : No
Forced : No

Text #6
ID : 8
Format : UTF-8
Codec ID : S_TEXT/UTF8
Codec ID/Info : UTF-8 Plain Text
Duration : 2 h 3 min
Bit rate : 47 b/s
Count of elements : 1441
Stream size : 42.6 KiB (0%)
Title : European
Language : Spanish
Default : No
Forced : No

Text #7
ID : 9
Format : UTF-8
Codec ID : S_TEXT/UTF8
Codec ID/Info : UTF-8 Plain Text
Duration : 2 h 3 min
Bit rate : 40 b/s
Count of elements : 1325
Stream size : 36.9 KiB (0%)
Language : Finnish
Default : No
Forced : No

Text #8
ID : 10
Format : UTF-8
Codec ID : S_TEXT/UTF8
Codec ID/Info : UTF-8 Plain Text
Duration : 2 h 3 min
Bit rate : 43 b/s
Count of elements : 1395
Stream size : 39.8 KiB (0%)
Language : French
Default : No
Forced : No

Text #9
ID : 11
Format : UTF-8
Codec ID : S_TEXT/UTF8
Codec ID/Info : UTF-8 Plain Text
Duration : 2 h 3 min
Bit rate : 47 b/s
Count of elements : 1421
Stream size : 43.0 KiB (0%)
Language : German
Default : No
Forced : No

Text #10
ID : 12
Format : UTF-8
Codec ID : S_TEXT/UTF8
Codec ID/Info : UTF-8 Plain Text
Duration : 2 h 3 min
Bit rate : 77 b/s
Count of elements : 1416
Stream size : 70.4 KiB (0%)
Language : Greek
Default : No
Forced : No

Text #11
ID : 13
Format : UTF-8
Codec ID : S_TEXT/UTF8
Codec ID/Info : UTF-8 Plain Text
Duration : 2 h 3 min
Bit rate : 48 b/s
Count of elements : 1450
Stream size : 44.1 KiB (0%)
Language : Indonesian
Default : No
Forced : No

Text #12
ID : 14
Format : UTF-8
Codec ID : S_TEXT/UTF8
Codec ID/Info : UTF-8 Plain Text
Duration : 2 h 3 min
Bit rate : 49 b/s
Count of elements : 1451
Stream size : 44.8 KiB (0%)
Language : Italian
Default : No
Forced : No

Text #13
ID : 15
Format : UTF-8
Codec ID : S_TEXT/UTF8
Codec ID/Info : UTF-8 Plain Text
Duration : 2 h 3 min
Bit rate : 46 b/s
Count of elements : 1442
Stream size : 42.0 KiB (0%)
Language : Norwegian Bokmal
Default : No
Forced : No

Text #14
ID : 16
Format : UTF-8
Codec ID : S_TEXT/UTF8
Codec ID/Info : UTF-8 Plain Text
Duration : 2 h 3 min
Bit rate : 42 b/s
Count of elements : 1362
Stream size : 38.8 KiB (0%)
Language : Polish
Default : No
Forced : No

Text #15
ID : 17
Format : UTF-8
Codec ID : S_TEXT/UTF8
Codec ID/Info : UTF-8 Plain Text
Duration : 2 h 3 min
Bit rate : 48 b/s
Count of elements : 1538
Stream size : 44.3 KiB (0%)
Language : Portuguese
Default : No
Forced : No

Text #16
ID : 18
Format : UTF-8
Codec ID : S_TEXT/UTF8
Codec ID/Info : UTF-8 Plain Text
Duration : 2 h 3 min
Bit rate : 73 b/s
Count of elements : 1453
Stream size : 66.7 KiB (0%)
Language : Russian
Default : No
Forced : No

Text #17
ID : 19
Format : UTF-8
Codec ID : S_TEXT/UTF8
Codec ID/Info : UTF-8 Plain Text
Duration : 2 h 3 min
Bit rate : 42 b/s
Count of elements : 1431
Stream size : 38.3 KiB (0%)
Language : Spanish
Default : No
Forced : No

Text #18
ID : 20
Format : UTF-8
Codec ID : S_TEXT/UTF8
Codec ID/Info : UTF-8 Plain Text
Duration : 2 h 3 min
Bit rate : 43 b/s
Count of elements : 1410
Stream size : 39.7 KiB (0%)
Language : Swedish
Default : No
Forced : No

Text #19
ID : 21
Format : UTF-8
Codec ID : S_TEXT/UTF8
Codec ID/Info : UTF-8 Plain Text
Duration : 2 h 3 min
Bit rate : 48 b/s
Count of elements : 1440
Stream size : 43.8 KiB (0%)
Language : Turkish
Default : No
Forced : No

Subtitulos

Grupo: DEFLATE
Versión: WEBRip x265 2160p E-AC3
Tamaño: 16.8 GB
Bird.Box.2018.2160p.WEBRip.X265-DEFLATE

Release Date : 2018-12-23
URL          : http://www.imdb.com/title/tt2737304

Duration     : 02:03:47.168000
Video        : X265+HDR10 (CRF 18.5, 10 bit, BT.2020, 4:2:0)
Resolution   : 3840x1598 (2.403:1 / 1920:799) @ 24/1 fps
Audio        : AC3++Atmos @ 448 kb/s (5.1)
Language     : English
Subtitles    : English, English (SDH), Arabic, Bulgarian, Chinese (Simplified), Chinese
(Traditional), Danish, Dutch, Finnish, French, German, Greek, Hebrew,
Indonesian, Italian, Japanese, Korean, Norwegian, Polish, Portuguese,
Portuguese (Brazilian), Romanian, Russian, Spanish, Spanish, Swedish,
Thai, Turkish
Size         : 17,253.929 MB (18,092,056,074 bytes)
Notes        : CRF+1.5 to maintain ~20Mbit/s
Trailer