37
PUNTOS
Calificar
CALIFICA
Calificar
Califica y/o escribe un comentario sobre la película.
Comentarios en el foroFORO

Batman & Robin (1997)

Los experimentos del doctor Victor Fries para conservar la vida de su esposa con técnicas criogénicas originaron un error fatal que lo convirtió en Míster Frío, un villano que necesita mantener su cuerpo a temperaturas glaciales y que intentará congelar a todos los habitantes de la ciudad de Gotham. Además, la tímida botánica Pamela Isley se transforma en el transcurso de un experimento en la terrible Hiedra Venenosa que querrá asesinar a todos los seres humanos para que las plantas recuperen su hegemonía sobre la Tierra. Batman y su compañero Robin deberán enfrentarse a ellos para hacer fracasar sus siniestros planes.
Director Joel Schumacher
Actores Arnold Schwarzenegger, George Clooney, Chris O'Donnell, Uma Thurman
Duración 125 min
Streaming (Servicio externo)
Grupo: RARBG
Versión: BDRip H.264 1080p AAC
Tamaño: 2.4 GB
Batman.And.Robin.1997.1080p.BluRay.H264.AAC-RARBG

Video
ID : 1
Format : AVC
Format/Info : Advanced Video Codec
Format profile : [email protected]
Format settings, CABAC : Yes
Format settings, ReFrames : 4 frames
Codec ID : avc1
Codec ID/Info : Advanced Video Coding
Duration : 2 h 4 min
Bit rate : 2 500 kb/s
Width : 1 920 pixels
Height : 1 080 pixels
Display aspect ratio : 16:9
Frame rate mode : Constant
Frame rate : 23.976 (23976/1000) FPS
Color space : YUV
Chroma subsampling : 4:2:0
Bit depth : 8 bits
Scan type : Progressive
Bits/(Pixel*Frame) : 0.050
Stream size : 2.18 GiB (92%)
Writing library : x264 core 152 r2851M ba24899
Encoding settings : cabac=1 / ref=4 / deblock=1:-1:-1 / analyse=0x3:0x113 / me=umh / subme=9 / psy=1 / psy_rd=1.00:0.15 / mixed_ref=1 / me_range=24 / chroma_me=1 / trellis=2 / 8x8dct=1 / cqm=0 / deadzone=21,11 / fast_pskip=1 / chroma_qp_offset=-3 / threads=32 / lookahead_threads=4 / sliced_threads=0 / nr=0 / decimate=1 / interlaced=0 / bluray_compat=0 / constrained_intra=0 / bframes=3 / b_pyramid=2 / b_adapt=2 / b_bias=0 / direct=3 / weightb=1 / open_gop=0 / weightp=2 / keyint=250 / keyint_min=25 / scenecut=40 / intra_refresh=0 / rc_lookahead=50 / rc=2pass / mbtree=1 / bitrate=2500 / ratetol=1.0 / qcomp=0.60 / qpmin=0 / qpmax=69 / qpstep=4 / cplxblur=20.0 / qblur=0.5 / vbv_maxrate=31250 / vbv_bufsize=31250 / nal_hrd=none / filler=0 / ip_ratio=1.40 / aq=3:1.00
Encoded date : UTC 2017-12-18 04:53:04
Tagged date : UTC 2017-12-18 04:53:04

Audio
ID : 2
Format : AAC
Format/Info : Advanced Audio Codec
Format profile : LC
Codec ID : 40
Duration : 2 h 4 min
Bit rate mode : Constant
Bit rate : 224 kb/s
Channel(s) : 2 channels
Channel(s)_Original : 6 channels
Channel positions : Front: L C R, Side: L R, LFE
Sampling rate : 48.0 kHz
Frame rate : 46.875 FPS (1024 spf)
Compression mode : Lossy
Stream size : 200 MiB (8%)
Language : English
Default : Yes
Alternate group : 1
Encoded date : UTC 2017-12-18 04:53:04
Tagged date : UTC 2017-12-18 04:53:04

Subtitulos

Trailer