68
PUNTOS
Calificar
CALIFICA
Calificar
Califica y/o escribe un comentario sobre la película.
Comentarios en el foroFORO

Reign of the Supermen (2019)

Tras el sacrificio de Superman para derrotar a Doomsday, el mundo se ha llenado de nuevas versiones del superhéroe que tratan de luchar contra el crimen, con personajes variopintos como Superboy, Acero, Superman Cyborg y el Erradicador cuya función social es duramente criticada por los medios. Continuación de la película de 2018 La muerte de Superman.
Director Sam Liu
Actores Jerry O'Connell, Rebecca Romijn, Rainn Wilson, Patrick Fabian
Duración 87 min
Streaming (Servicio externo)
Grupo: VETO
Versión: BDRip x264 AAC
Tamaño: 350 MB
Reign.of.the.Supermen.2019.BDRip.x264-VETO

RELEASE DATE : 30.01.2019
GENRE        : Animation
RUNTIME      : 1 Hour 27 Min.
IMDB RATING  : 7.0/10 (3.180 Votes)
IMDB LINK    : https://www.imdb.com/title/tt7167686/
FORMAT       : 480p .MKV
RESOLUTION   : 720 x 404
ASPECT RATIO : 1:1,78
VIDEO        : crf19 @ 409 KBPS
AUDIO        : English AAC 126
SUBS         : English Vob
RAR COUNT    :  24 x 15 MB
SEARCH       : Talent Rippers/Supplys and Nice HQ s
WORD         : We Accept no VETO !!!
GREETZ       :

Subtitulos

Grupo: VETO
Versión: BDRip x264 720p DTS
Tamaño: 4.0 GB
Reign.of.the.Supermen.2019.720p.BluRay.x264-VETO

RELEASE DATE : 30.01.2019
GENRE        : Animation
RUNTIME      : 1 Hour 27 Min.
IMDB RATING  : 7.0/10 (3.180 Votes)
IMDB LINK    : https://www.imdb.com/title/tt7167686/
FORMAT       : 720p .MKV
RESOLUTION   : 1280 x 720
ASPECT RATIO : 1:1,78
VIDEO        : 2pass @ 4890 KBPS
AUDIO        : English DTS 5.1
SUBS         : English Vob
RAR COUNT    :  86 x 50 MB
SEARCH       : Talent Rippers/Supplys and Nice HQ s
WORD         : We Accept no VETO !!!
GREETZ       :

Subtitulos

Grupo: VETO
Versión: BDRip x264 1080p DTS
Tamaño: 6.6 GB
Reign.of.the.Supermen.2019.1080p.BluRay.x264-VETO

RELEASE DATE : 30.01.2019
GENRE        : Animation
RUNTIME      : 1 Hour 27 Min.
IMDB RATING  : 7.0/10 (3.180 Votes)
IMDB LINK    : https://www.imdb.com/title/tt7167686/
FORMAT       : 1080p .MKV
RESOLUTION   : 1920 x 1080
ASPECT RATIO : 1:1,78
VIDEO        : 2pass @ 9248 KBPS
AUDIO        : English DTS 5.1
SUBS         : English Vob
RAR COUNT    :  86 x 50 MB
SEARCH       : Talent Rippers/Supplys and Nice HQ s
WORD         : We Accept no VETO !!!
GREETZ       :

Subtitulos

Grupo: MT
Versión: BDRip x264 720p DTS
Tamaño: 2.3 GB
Reign.of.the.Supermen.2019.720p.BluRay.x264.DTS-MT

General
Unique ID                                : 155325744944815921411265518560560202307 (0x74DAA67C2E442CF906536B4C15A2C243)
Complete name                            : D:\R.O.T.S.2019.BluRay.720p.DTS.x264-MTeam.mkv
Format                                   : Matroska
Format version                           : Version 4 / Version 2
File size                                : 2.26 GiB
Duration                                 : 1 h 27 min
Overall bit rate                         : 3 703 kb/s
Encoded date                             : UTC 2019-01-19 15:54:26
Writing application                      : mkvmerge v29.0.0 ('Like It Or Not') 64-bit
Writing library                          : libebml v1.3.6 + libmatroska v1.4.9
 
Video
ID                                       : 1
Format                                   : AVC
Format/Info                              : Advanced Video Codec
Format profile                           : [email protected]
Format settings                          : CABAC / 9 Ref Frames
Format settings, CABAC                   : Yes
Format settings, RefFrames               : 9 frames
Codec ID                                 : V_MPEG4/ISO/AVC
Duration                                 : 1 h 27 min
Bit rate                                 : 2 178 kb/s
Width                                    : 1 280 pixels
Height                                   : 720 pixels
Display aspect ratio                     : 16:9
Frame rate mode                          : Constant
Frame rate                               : 23.976 (24000/1001) FPS
Color space                              : YUV
Chroma subsampling                       : 4:2:0
Bit depth                                : 8 bits
Scan type                                : Progressive
Bits/(Pixel*Frame)                       : 0.099
Stream size                              : 1.33 GiB (59%)
Writing library                          : x264 core 157 r2938 2b00a84 [email protected] Mod
Encoding settings                        : cabac=1 / ref=9 / deblock=1:-3:-3 / analyse=0x3:0x133 / me=umh / subme=10 / psy=1 / psy_rd=1.05:0.00 / mixed_ref=1 / me_range=24 / chroma_me=1 / trellis=2 / 8x8dct=1 / cqm=0 / deadzone=21,11 / fast_pskip=0 / chroma_qp_offset=-2 / threads=12 / lookahead_threads=2 / sliced_threads=0 / nr=0 / decimate=0 / interlaced=0 / bluray_compat=0 / constrained_intra=0 / bframes=8 / b_pyramid=2 / b_adapt=2 / b_bias=0 / direct=3 / weightb=1 / open_gop=0 / weightp=2 / keyint=250 / keyint_min=24 / scenecut=40 / intra_refresh=0 / rc_lookahead=250 / rc=crf / mbtree=0 / crf=16.7 / qcomp=0.60 / qpmin=0 / qpmax=69 / qpstep=4 / vbv_maxrate=62500 / vbv_bufsize=78125 / crf_max=0.0 / nal_hrd=none / filler=0 / ip_ratio=1.30 / pb_ratio=1.20 / aq=3:0.80
Language                                 : English
Default                                  : Yes
Forced                                   : No
Color range                              : Limited
Color primaries                          : BT.709
Matrix coefficients                      : BT.709
 
Audio
ID                                       : 2
Format                                   : DTS
Format/Info                              : Digital Theater Systems
Codec ID                                 : A_DTS
Duration                                 : 1 h 27 min
Bit rate mode                            : Constant
Bit rate                                 : 1 509 kb/s
Channel(s)                               : 6 channels
Channel positions                        : Front: L C R, Side: L R, LFE
Sampling rate                            : 48.0 kHz
Frame rate                               : 93.750 FPS (512 SPF)
Bit depth                                : 24 bits
Compression mode                         : Lossy
Stream size                              : 941 MiB (41%)
Default                                  : Yes
Forced                                   : No
 
Text
ID                                       : 3
Format                                   : PGS
Muxing mode                              : zlib
Codec ID                                 : S_HDMV/PGS
Codec ID/Info                            : Picture based subtitle format used on BDs/HD-DVDs
Duration                                 : 1 h 26 min
Bit rate                                 : 32.3 kb/s
Count of elements                        : 2318
Stream size                              : 19.9 MiB (1%)
Language                                 : English
Default                                  : Yes
Forced                                   : No
 
Menu
00:00:00.000                             : en:Chapter 01
00:10:10.693                             : en:Chapter 02
00:21:05.347                             : en:Chapter 03
00:33:15.452                             : en:Chapter 04
00:43:32.193                             : en:Chapter 05
00:53:08.185                             : en:Chapter 06
01:04:37.999                             : en:Chapter 07
01:13:56.599                             : en:Chapter 08
01:23:35.010                             : en:Chapter 09
Grupo: MT
Versión: BDRip x264 1080p DTS
Tamaño: 4.6 GB
Reign.of.the.Supermen.2019.1080p.BluRay.x264.DTS-MT

Video
ID : 1
Format : AVC
Format/Info : Advanced Video Codec
Format profile : [email protected]
Format settings : CABAC / 4 Ref Frames
Format settings, CABAC : Yes
Format settings, ReFrames : 4 frames
Codec ID : V_MPEG4/ISO/AVC
Duration : 1 h 27 min
Bit rate : 6 082 kb/s
Width : 1 920 pixels
Height : 1 080 pixels
Display aspect ratio : 16:9
Frame rate mode : Constant
Frame rate : 23.976 (24000/1001) FPS
Color space : YUV
Chroma subsampling : 4:2:0
Bit depth : 8 bits
Scan type : Progressive
Bits/(Pixel*Frame) : 0.122
Stream size : 3.71 GiB (80%)
Writing library : x264 core 157 r2938 2b00a84 [email protected] Mod
Encoding settings : cabac=1 / ref=4 / deblock=1:-3:-3 / analyse=0x3:0x133 / me=umh / subme=10 / psy=1 / psy_rd=1.05:0.00 / mixed_ref=1 / me_range=24 / chroma_me=1 / trellis=2 / 8x8dct=1 / cqm=0 / deadzone=21,11 / fast_pskip=0 / chroma_qp_offset=-2 / threads=12 / lookahead_threads=2 / sliced_threads=0 / nr=0 / decimate=0 / interlaced=0 / bluray_compat=0 / constrained_intra=0 / bframes=8 / b_pyramid=2 / b_adapt=2 / b_bias=0 / direct=3 / weightb=1 / open_gop=0 / weightp=2 / keyint=250 / keyint_min=24 / scenecut=40 / intra_refresh=0 / rc_lookahead=250 / rc=crf / mbtree=0 / crf=16.7 / qcomp=0.60 / qpmin=0 / qpmax=69 / qpstep=4 / vbv_maxrate=62500 / vbv_bufsize=78125 / crf_max=0.0 / nal_hrd=none / filler=0 / ip_ratio=1.30 / pb_ratio=1.20 / aq=3:0.80
Language : English
Default : Yes
Forced : No
Color range : Limited
Color primaries : BT.709
Matrix coefficients : BT.709

Audio
ID : 2
Format : DTS
Format/Info : Digital Theater Systems
Codec ID : A_DTS
Duration : 1 h 27 min
Bit rate mode : Constant
Bit rate : 1 509 kb/s
Channel(s) : 6 channels
Channel layout : C L R Ls Rs LFE
Sampling rate : 48.0 kHz
Frame rate : 93.750 FPS (512 SPF)
Bit depth : 24 bits
Compression mode : Lossy
Stream size : 941 MiB (20%)
Language : English
Default : Yes
Forced : No

Text
ID : 3
Format : UTF-8
Codec ID : S_TEXT/UTF8
Codec ID/Info : UTF-8 Plain Text
Duration : 1 h 26 min
Bit rate : 45 b/s
Count of elements : 1038
Stream size : 29.0 KiB (0%)
Language : English
Default : Yes
Forced : No

Menu
00:00:00.000 : en:Chapter 01
00:10:10.693 : en:Chapter 02
00:21:05.347 : en:Chapter 03
00:33:15.452 : en:Chapter 04
00:43:32.193 : en:Chapter 05
00:53:08.185 : en:Chapter 06
01:04:37.999 : en:Chapter 07
01:13:56.599 : en:Chapter 08
01:23:35.010 : en:Chapter 09
Grupo: MT
Versión: BDRip x264 1080p DTS-HD
Tamaño: 5.2 GB
Reign.of.the.Supermen.2019.1080p.BluRay.x264.DTS-HD.MA.5.1-MT

General
Unique ID                                : 134336739654063571249165178024144912938 (0x651050A0C460E86E5426B6691BFFC22A)
Complete name                            : D:\R.O.T.S.2019.BluRay.1080p.DTS-HD.MA.5.1.x264-MTeam.mkv
Format                                   : Matroska
Format version                           : Version 4 / Version 2
File size                                : 5.15 GiB
Duration                                 : 1 h 27 min
Overall bit rate                         : 8 450 kb/s
Encoded date                             : UTC 2019-01-19 18:26:36
Writing application                      : mkvmerge v29.0.0 ('Like It Or Not') 64-bit
Writing library                          : libebml v1.3.6 + libmatroska v1.4.9
 
Video
ID                                       : 1
Format                                   : AVC
Format/Info                              : Advanced Video Codec
Format profile                           : [email protected]
Format settings                          : CABAC / 4 Ref Frames
Format settings, CABAC                   : Yes
Format settings, RefFrames               : 4 frames
Codec ID                                 : V_MPEG4/ISO/AVC
Duration                                 : 1 h 27 min
Bit rate                                 : 6 082 kb/s
Width                                    : 1 920 pixels
Height                                   : 1 080 pixels
Display aspect ratio                     : 16:9
Frame rate mode                          : Constant
Frame rate                               : 23.976 (24000/1001) FPS
Color space                              : YUV
Chroma subsampling                       : 4:2:0
Bit depth                                : 8 bits
Scan type                                : Progressive
Bits/(Pixel*Frame)                       : 0.122
Stream size                              : 3.71 GiB (72%)
Writing library                          : x264 core 157 r2938 2b00a84 [email protected] Mod
Encoding settings                        : cabac=1 / ref=4 / deblock=1:-3:-3 / analyse=0x3:0x133 / me=umh / subme=10 / psy=1 / psy_rd=1.05:0.00 / mixed_ref=1 / me_range=24 / chroma_me=1 / trellis=2 / 8x8dct=1 / cqm=0 / deadzone=21,11 / fast_pskip=0 / chroma_qp_offset=-2 / threads=12 / lookahead_threads=2 / sliced_threads=0 / nr=0 / decimate=0 / interlaced=0 / bluray_compat=0 / constrained_intra=0 / bframes=8 / b_pyramid=2 / b_adapt=2 / b_bias=0 / direct=3 / weightb=1 / open_gop=0 / weightp=2 / keyint=250 / keyint_min=24 / scenecut=40 / intra_refresh=0 / rc_lookahead=250 / rc=crf / mbtree=0 / crf=16.7 / qcomp=0.60 / qpmin=0 / qpmax=69 / qpstep=4 / vbv_maxrate=62500 / vbv_bufsize=78125 / crf_max=0.0 / nal_hrd=none / filler=0 / ip_ratio=1.30 / pb_ratio=1.20 / aq=3:0.80
Language                                 : English
Default                                  : Yes
Forced                                   : No
Color range                              : Limited
Color primaries                          : BT.709
Matrix coefficients                      : BT.709
 
Audio
ID                                       : 2
Format                                   : DTS
Format/Info                              : Digital Theater Systems
Format profile                           : MA / Core
Codec ID                                 : A_DTS
Duration                                 : 1 h 27 min
Bit rate mode                            : Variable / Constant
Bit rate                                 : 2 351 kb/s / 1 509 kb/s
Channel(s)                               : 6 channels
Channel positions                        : Front: L C R, Side: L R, LFE
Sampling rate                            : 48.0 kHz
Frame rate                               : 93.750 FPS (512 SPF)
Bit depth                                : 24 bits
Compression mode                         : Lossless / Lossy
Stream size                              : 1.43 GiB (28%)
Default                                  : Yes
Forced                                   : No
 
Text
ID                                       : 3
Format                                   : PGS
Muxing mode                              : zlib
Codec ID                                 : S_HDMV/PGS
Codec ID/Info                            : Picture based subtitle format used on BDs/HD-DVDs
Duration                                 : 1 h 26 min
Bit rate                                 : 32.3 kb/s
Count of elements                        : 2318
Stream size                              : 19.9 MiB (0%)
Language                                 : English
Default                                  : Yes
Forced                                   : No
 
Menu
00:00:00.000                             : en:Chapter 01
00:10:10.693                             : en:Chapter 02
00:21:05.347                             : en:Chapter 03
00:33:15.452                             : en:Chapter 04
00:43:32.193                             : en:Chapter 05
00:53:08.185                             : en:Chapter 06
01:04:37.999                             : en:Chapter 07
01:13:56.599                             : en:Chapter 08
01:23:35.010                             : en:Chapter 09
Trailer