47
PUNTOS
Calificar
CALIFICA
Calificar
Califica y/o escribe un comentario sobre la película.
Comentarios en el foroFORO

Io (2019)

Sam, una adolescente, es una de las últimas supervivientes de una Tierra post-apocalíptica. Con el transbordador final programado para salir del planeta, Sam debe decidir si viajar al punto de lanzamiento y unirse al resto de la humanidad; o permanecer en la Tierra, y ser un náufrago en el único hogar que ha conocido.
Director Jonathan Helpert
Actores Margaret Qualley, Anthony Mackie, Danny Huston, Tom Payne
Duración 96 min
Streaming (Servicio externo)
Grupo: STRiFE
Versión: WEBRip x264 720p E-AC3
Tamaño: 2.3 GB
IO.2019.720p.WEBRip.x264-STRiFE
	
Video
ID : 1
Format : AVC
Format/Info : Advanced Video Codec
Format profile : [email protected]
Format settings : CABAC / 5 Ref Frames
Format settings, CABAC : Yes
Format settings, ReFrames : 5 frames
Codec ID : V_MPEG4/ISO/AVC
Duration : 1 h 36 min
Bit rate : 2 733 kb/s
Width : 1 280 pixels
Height : 532 pixels
Display aspect ratio : 2.40:1
Frame rate mode : Constant
Frame rate : 24.000 FPS
Color space : YUV
Chroma subsampling : 4:2:0
Bit depth : 8 bits
Scan type : Progressive
Bits/(Pixel*Frame) : 0.167
Stream size : 1.83 GiB (81%)
Writing library : x264 core 157 r2935 545de2f
Encoding settings : cabac=1 / ref=5 / deblock=1:-3:-3 / analyse=0x3:0x113 / me=hex / subme=8 / psy=1 / psy_rd=1.00:0.15 / mixed_ref=1 / me_range=16 / chroma_me=1 / trellis=2 / 8x8dct=1 / cqm=0 / deadzone=21,11 / fast_pskip=0 / chroma_qp_offset=-2 / threads=17 / lookahead_threads=2 / sliced_threads=0 / nr=0 / decimate=1 / interlaced=0 / bluray_compat=0 / constrained_intra=0 / bframes=3 / b_pyramid=2 / b_adapt=1 / b_bias=0 / direct=3 / weightb=1 / open_gop=0 / weightp=2 / keyint=240 / keyint_min=24 / scenecut=40 / intra_refresh=0 / rc_lookahead=50 / rc=crf / mbtree=1 / crf=18.0 / qcomp=0.60 / qpmin=0 / qpmax=69 / qpstep=4 / ip_ratio=1.40 / aq=3:0.80
Language : English
Default : Yes
Forced : No

Audio
ID : 2
Format : E-AC-3
Format/Info : Enhanced AC-3
Commercial name : Dolby Digital Plus
Codec ID : A_EAC3
Duration : 1 h 36 min
Bit rate mode : Constant
Bit rate : 640 kb/s
Channel(s) : 6 channels
Channel layout : L R C LFE Ls Rs
Sampling rate : 48.0 kHz
Frame rate : 31.250 FPS (1536 SPF)
Compression mode : Lossy
Stream size : 440 MiB (19%)
Language : English
Service kind : Complete Main
Default : Yes
Forced : No

Text #1
ID : 3
Format : UTF-8
Codec ID : S_TEXT/UTF8
Codec ID/Info : UTF-8 Plain Text
Duration : 1 h 28 min
Bit rate : 34 b/s
Count of elements : 759
Stream size : 22.3 KiB (0%)
Language : English
Default : No
Forced : No

Text #2
ID : 4
Format : UTF-8
Codec ID : S_TEXT/UTF8
Codec ID/Info : UTF-8 Plain Text
Duration : 1 h 34 min
Bit rate : 29 b/s
Count of elements : 715
Stream size : 20.7 KiB (0%)
Language : French
Default : No
Forced : No

Text #3
ID : 5
Format : UTF-8
Codec ID : S_TEXT/UTF8
Codec ID/Info : UTF-8 Plain Text
Duration : 1 h 34 min
Bit rate : 29 b/s
Count of elements : 717
Stream size : 20.3 KiB (0%)
Language : German
Default : No
Forced : No

Text #4
ID : 6
Format : UTF-8
Codec ID : S_TEXT/UTF8
Codec ID/Info : UTF-8 Plain Text
Duration : 1 h 34 min
Bit rate : 27 b/s
Count of elements : 666
Stream size : 18.9 KiB (0%)
Language : Italian
Default : No
Forced : No

Text #5
ID : 7
Format : UTF-8
Codec ID : S_TEXT/UTF8
Codec ID/Info : UTF-8 Plain Text
Duration : 1 h 34 min
Bit rate : 27 b/s
Count of elements : 716
Stream size : 19.1 KiB (0%)
Language : Portuguese
Default : No
Forced : No

Subtitulos

Grupo: DEFLATE
Versión: WEBRip x264 1080p E-AC3
Tamaño: 10.6 GB
IO.2019.1080p.WEBRip.X264-DEFLATE

Release Date : 2019-01-18
URL          : https://www.imdb.com/title/tt3256226

Duration     : 01:35:36.000000
Video        : X264 (CRF 17.0, 8 bit, 4:2:0)
Resolution   : 1920x800 (2.400:1 / 12:5) @ 24/1 fps
Audio        : AC3+ @ 640 kb/s (5.1)
Language     : English
Subtitles    : English, English (SDH), Arabic, Chinese (Simplified), Chinese
(Traditional), Danish, Dutch, Finnish, French, German, Greek, Hebrew,
Indonesian, Italian, Japanese, Korean, Norwegian, Polish, Portuguese,
Portuguese (Brazilian), Romanian, Russian, Spanish, Spanish, Swedish,
Thai, Turkish, Vietnamese
Size         : 10,863.511 MB (11,391,216,631 bytes)

Subtitulos

Trailer