59
PUNTOS
Calificar
CALIFICA
Calificar
Califica y/o escribe un comentario sobre la película.
Comentarios en el foroFORO

Velvet Buzzsaw (2019)

En el despiadado mundo del comercio del arte, Josephina (Zawe Ashton) encuentra por accidente un auténtico tesoro: un viejo artista clandestino, tras fallecer, deja tras de sí una maravillosa colección de cuadros con el deseo expreso de que éstos fuesen destruidos tras su muerte. Decidida a sacar buena renta de ellos, Josephina comienza a exponerlos ante algunos de los pesos pesados de la industria, incluyendo a su jefa Rhodora (Russo), al crítico de arte Morf (Gyllenhaal), y a la coleccionistas de arte Gretchen (Collette). Aunque la obra del artista logra la admiración del público, también despierta algo imperceptible y siniestro que amenaza con castigar a aquellos que se han beneficiado de su trabajo.
Director Dan Gilroy
Actores Jake Gyllenhaal, Rene Russo, Zawe Ashton, Tom Sturridge
Duración 113 min
Streaming (Servicio externo)
Grupo: FGT
Versión: WEBRip x264 AAC
Tamaño: 1.1 GB
Velvet.Buzzsaw.2019.WEBRip.x264-FGT

Video
ID : 1
Format : AVC
Format/Info : Advanced Video Codec
Format profile : [email protected]
Format settings : CABAC / 5 Ref Frames
Format settings, CABAC : Yes
Format settings, ReFrames : 5 frames
Codec ID : avc1
Codec ID/Info : Advanced Video Coding
Duration : 1 h 52 min
Bit rate : 1 100 kb/s
Width : 720 pixels
Height : 384 pixels
Display aspect ratio : 1.85:1
Original display aspect ratio : 1.85:1
Frame rate mode : Constant
Frame rate : 24.000 FPS
Color space : YUV
Chroma subsampling : 4:2:0
Bit depth : 8 bits
Scan type : Progressive
Bits/(Pixel*Frame) : 0.166
Stream size : 893 MiB (81%)
Title : Velvet.Buzzsaw.2019.WEBRip.x264-FGT
Writing library : x264 core 148 r2795M aaa9aa8
Encoding settings : cabac=1 / ref=5 / deblock=1:-1:-1 / analyse=0x3:0x113 / me=umh / subme=9 / psy=1 / psy_rd=1.00:0.15 / mixed_ref=1 / me_range=16 / chroma_me=1 / trellis=2 / 8x8dct=1 / cqm=0 / deadzone=21,11 / fast_pskip=1 / chroma_qp_offset=-3 / threads=24 / lookahead_threads=2 / sliced_threads=0 / nr=0 / decimate=1 / interlaced=0 / bluray_compat=0 / constrained_intra=0 / bframes=3 / b_pyramid=2 / b_adapt=2 / b_bias=0 / direct=3 / weightb=1 / open_gop=0 / weightp=2 / keyint=250 / keyint_min=24 / scenecut=40 / intra_refresh=0 / rc_lookahead=50 / rc=abr / mbtree=1 / bitrate=1100 / ratetol=1.0 / qcomp=0.60 / qpmin=0 / qpmax=69 / qpstep=4 / ip_ratio=1.40 / aq=1:1.00
Codec configuration box : avcC

Audio
ID : 2
Format : AAC LC
Format/Info : Advanced Audio Codec Low Complexity
Codec ID : mp4a-40-2
Duration : 1 h 52 min
Duration_LastFrame : -11 ms
Bit rate mode : Constant
Bit rate : 256 kb/s
Channel(s) : 2 channels
Channel layout : L R
Sampling rate : 48.0 kHz
Frame rate : 46.875 FPS (1024 SPF)
Compression mode : Lossy
Stream size : 206 MiB (19%)
Title : Velvet.Buzzsaw.2019.WEBRip.x264-FGT
Language : English
Default : Yes
Alternate group : 1

Subtitulos

Grupo: DEFLATE
Versión: WEBRip x264 720p E-AC3
Tamaño: 3.1 GB
Velvet.Buzzsaw.2019.720p.WEBRip.X264-DEFLATE

Release Date : 2019-02-01
URL          : https://www.imdb.com/title/tt7043012

Duration     : 01:51:58.016000
Video        : X264 (CRF 18.0, 8 bit, 4:2:0)
Resolution   : 1280x692 (1.850:1 / 320:173) @ 24/1 fps
Audio        : AC3++Atmos @ 448 kb/s (5.1)
Language     : English
Subtitles    : English, English (SDH), Arabic, Chinese (Simplified), Chinese
(Traditional), Danish, Dutch, Finnish, French, German, Greek, Hebrew,
Indonesian, Italian, Japanese, Korean, Norwegian, Polish, Portuguese,
Portuguese (Brazilian), Romanian, Russian, Spanish, Spanish, Swedish,
Thai, Turkish
Size         : 3,167.925 MB (3,321,810,330 bytes)

Subtitulos

Grupo: DEFLATE
Versión: WEBRip x264 1080p E-AC3
Tamaño: 9.7 GB
Velvet.Buzzsaw.2019.1080p.WEBRip.X264-DEFLATE

Release Date : 2019-02-01
URL          : https://www.imdb.com/title/tt7043012

Duration     : 01:51:58.016000
Video        : X264 (CRF 17.0, 8 bit, 4:2:0)
Resolution   : 1920x1038 (1.850:1 / 320:173) @ 24/1 fps
Audio        : AC3++Atmos @ 448 kb/s (5.1)
Language     : English
Subtitles    : English, English (SDH), Arabic, Chinese (Simplified), Chinese
(Traditional), Danish, Dutch, Finnish, French, German, Greek, Hebrew,
Indonesian, Italian, Japanese, Korean, Norwegian, Polish, Portuguese,
Portuguese (Brazilian), Romanian, Russian, Spanish, Spanish, Swedish,
Thai, Turkish
Size         : 9,992.784 MB (10,478,193,585 bytes)

Subtitulos

Grupo: DEFLATE
Versión: WEBRip x265 2160p E-AC3
Tamaño: 14.0 GB
Velvet.Buzzsaw.2019.2160p.WEBRip.X265-DEFLATE

Release Date : 2019-02-02
URL          : http://www.imdb.com/title/tt7043012

Duration     : 01:51:58.016000
Video        : X265+HDR10 (CRF 20.5, 10 bit, BT.2020, 4:2:0)
Resolution   : 3840x2076 (1.850:1 / 320:173) @ 24/1 fps
Audio        : AC3++Atmos @ 448 kb/s (5.1)
Language     : English
Subtitles    : English, English (SDH), Arabic, Chinese (Simplified), Chinese
(Traditional), Danish, Dutch, Finnish, French, German, Greek, Hebrew,
Indonesian, Italian, Japanese, Korean, Norwegian, Polish, Portuguese,
Portuguese (Brazilian), Romanian, Russian, Spanish, Spanish, Swedish,
Thai, Turkish
Size         : 14,363.480 MB (15,061,200,457 bytes)
Notes        : CRF+3.5 to maintain ~20Mbit/s
Trailer