78
PUNTOS
Calificar
CALIFICA
Calificar
Califica y/o escribe un comentario sobre la película.
Comentarios en el foroFORO

Mysterious Skin (2004)

En 1981, Brian tenía ocho años y estaba sentado en el banquillo durante un partido de la liga juvenil de béisbol. Cinco horas después despierta en el sótano de su casa con una hemorragia nasal y sin recuerdos. Brian moja la cama y tiene pesadillas, también inventa: fue abducido por extraterrestres. Y pasa el tiempo, Brian llega a la adolescencia, torpe, acomplejado y entregado a la causa OVNI, también Neil, su compañero de infancia, se ha hecho mayor. Neil es la antítesis de Brian, él es sexy, jugador estrella y experto en juegos con hombres adultos con los que nunca se compromete. Mientras Brian encuentra en Avalyn Friesen, un discapacitado obsesionado con sus experiencias en la tercera fase, la posibilidad de asumir sus experiencias inhibidas, Neil huye a nueva York a rozar el lado peligroso.
Director Gregg Araki
Actores Brady Corbet, Joseph Gordon-Levitt, Elisabeth Shue
Duración 105 min
País USA | Netherlands
Streaming (Servicio externo)
Grupo: FRAGMENT
Versión: DVDRip XviD
Tamaño: 700 MB
General
Complete name                    : Mysterious.Skin.(2004).DVDRip.XviD-FRAGMENT.avi
Format                           : AVI
Format/Info                      : Audio Video Interleave
File size                        : 700 MiB
Duration                         : 1h 40mn
Overall bit rate                 : 971 Kbps
Writing application              : Nandub v1.0rc2
Writing library                  : Nandub build 1852/release

Video
Format                           : MPEG-4 Visual
Format profile                   : Streaming [email protected]
Format settings, BVOP            : Yes
Format settings, QPel            : No
Format settings, GMC             : No warppoints
Format settings, Matrix          : Default
Muxing mode                      : Packet Bitstream
Codec ID                         : XVID
Codec ID/Hint                    : XviD
Duration                         : 1h 40mn
Bit rate                         : 813 Kbps
Width                            : 640 pixels
Height                           : 336 pixels
Display aspect ratio             : 1.905
Frame rate                       : 25.000 fps
Resolution                       : 24 bits
Colorimetry                      : 4:2:0
Scan type                        : Progressive
Bits/(Pixel*Frame)               : 0.151
Stream size                      : 586 MiB (84%)
Writing library                  : XviD 1.0.3 (UTC 2004-12-20)

Audio
Format                           : MPEG Audio
Format version                   : Version 1
Format profile                   : Layer 3
Codec ID                         : 55
Codec ID/Hint                    : MP3
Duration                         : 1h 40mn
Bit rate mode                    : Variable
Bit rate                         : 145 Kbps
Channel(s)                       : 2 channels
Sampling rate                    : 48.0 KHz
Resolution                       : 16 bits
Stream size                      : 104 MiB (15%)
Alignment                        : Aligned on interleaves
Interleave, duration             : 24 ms (0.60 video frame)
Interleave, preload duration     : 122 ms

Subtitulos