82
PUNTOS
Calificar
CALIFICA
Calificar
Califica y/o escribe un comentario sobre la película.
Comentarios en el foroFORO

Ahlat Agaci (2018)

Un aspirante a escritor regresa a su pueblo natal en Turquía, pero se siente abrumado por las deudas y problemas que tiene su padre.
Director Nuri Bilge Ceylan
Actores Dogu Demirkol, Murat Cemcir, Bennu Yildirimlar, Hazar Ergüçlü
Duración 188 min
Streaming (Servicio externo)
Grupo: DEPTH
Versión: BDRip x264 AAC
Tamaño: 1.0 GB
The.Wild.Pear.Tree.2018.BDRip.x264-DEPTH

date   15/03/2019
size   1065 mb
length   3 h 8 min
video   720x302 crf19 @ 657 kb/s
audio   turkish aac 2.0 @ 132 kb/s
subs   english
url   https://www.imdb.com/title/tt6628102

Subtitulos

Grupo: DEPTH
Versión: BDRip x264 720p DTS
Tamaño: 8.8 GB
The.Wild.Pear.Tree.2018.720p.BluRay.x264-DEPTH

date   15/03/2019
size   8948 mb
length   3 h 8 min
video   1280x536 2pass @ 5136 kb/s
audio   turkish dts 5.1 @ 1509 kb/s
subs   english
url   https://www.imdb.com/title/tt6628102

Subtitulos

Grupo: DON
Versión: BDRip x264 720p AC3
Tamaño: 8.2 GB
General
Unique ID                                : 66678365853745402985403940531879513785 (0x3229C940BC9801AE4EC7EFD081138EB9)
Complete name                            : Ahlat.Agaci.(2018).720p.BluRay.DD5.1.x264-DON.mkv
Format                                   : Matroska
Format version                           : Version 4 / Version 2
File size                                : 8.18 GiB
Duration                                 : 3 h 8 min
Overall bit rate                         : 6 216 kb/s
Encoded date                             : UTC 2018-12-04 17:12:54
Writing application                      : mkvmerge v29.0.0 ('Like It Or Not') 64-bit
Writing library                          : libebml v1.3.6 + libmatroska v1.4.9

Video
ID                                       : 1
Format                                   : AVC
Format/Info                              : Advanced Video Codec
Format profile                           : [email protected]
Format settings                          : CABAC / 12 Ref Frames
Format settings, CABAC                   : Yes
Format settings, ReFrames                : 12 frames
Codec ID                                 : V_MPEG4/ISO/AVC
Duration                                 : 3 h 8 min
Bit rate                                 : 5 568 kb/s
Width                                    : 1 280 pixels
Height                                   : 538 pixels
Display aspect ratio                     : 2.40:1
Frame rate mode                          : Constant
Frame rate                               : 24.000 FPS
Color space                              : YUV
Chroma subsampling                       : 4:2:0
Bit depth                                : 8 bits
Scan type                                : Progressive
Bits/(Pixel*Frame)                       : 0.337
Stream size                              : 7.33 GiB (90%)
Title                                    : Ahlat.Agaci.(2018).720p.BluRay.DD5.1.x264-DON
Writing library                          : x264 core 157 r2935 545de2f
Encoding settings                        : cabac=1 / ref=12 / deblock=1:-3:-3 / analyse=0x3:0x113 / me=umh / subme=11 / psy=1 / psy_rd=1.05:0.00 / mixed_ref=1 / me_range=48 / chroma_me=1 / trellis=2 / 8x8dct=1 / cqm=0 / deadzone=21,11 / fast_pskip=0 / chroma_qp_offset=-2 / threads=17 / lookahead_threads=4 / sliced_threads=0 / slices=4 / nr=0 / decimate=0 / interlaced=0 / bluray_compat=0 / constrained_intra=0 / bframes=16 / b_pyramid=2 / b_adapt=2 / b_bias=0 / direct=3 / weightb=1 / open_gop=0 / weightp=2 / keyint=250 / keyint_min=23 / scenecut=40 / intra_refresh=0 / rc_lookahead=60 / rc=crf / mbtree=0 / crf=15.0 / qcomp=0.60 / qpmin=0 / qpmax=69 / qpstep=4 / vbv_maxrate=62500 / vbv_bufsize=78125 / crf_max=0.0 / nal_hrd=none / filler=0 / ip_ratio=1.25 / pb_ratio=1.15 / aq=3:0.85
Language                                 : Turkish
Default                                  : Yes
Forced                                   : No

Audio
ID                                       : 2
Format                                   : AC-3
Format/Info                              : Audio Coding 3
Codec ID                                 : A_AC3
Duration                                 : 3 h 8 min
Bit rate mode                            : Constant
Bit rate                                 : 640 kb/s
Channel(s)                               : 6 channels
Channel positions                        : Front: L C R, Side: L R, LFE
Sampling rate                            : 48.0 kHz
Frame rate                               : 31.250 FPS (1536 SPF)
Bit depth                                : 16 bits
Compression mode                         : Lossy
Stream size                              : 862 MiB (10%)
Title                                    : DD 5.1 @ 640 Kbps (Pro Encoder)
Language                                 : Turkish
Service kind                             : Complete Main
Default                                  : Yes
Forced                                   : No

Text #1
ID                                       : 3
Format                                   : UTF-8
Codec ID                                 : S_TEXT/UTF8
Codec ID/Info                            : UTF-8 Plain Text
Duration                                 : 3 h 0 min
Bit rate                                 : 58 b/s
Count of elements                        : 2638
Stream size                              : 76.8 KiB (0%)
Title                                    : Srt
Language                                 : English
Default                                  : Yes
Forced                                   : No

Text #2
ID                                       : 4
Format                                   : VobSub
Muxing mode                              : zlib
Codec ID                                 : S_VOBSUB
Codec ID/Info                            : Picture based subtitle format used on DVDs
Duration                                 : 3 h 0 min
Bit rate                                 : 9 642 b/s
Count of elements                        : 2638
Stream size                              : 12.4 MiB (0%)
Title                                    : Vobsub
Language                                 : English
Default                                  : No
Forced                                   : No

Menu
00:00:00.000                             : en:Chapter 1
00:08:38.250                             : en:Chapter 2
00:16:55.250                             : en:Chapter 3
00:25:13.208                             : en:Chapter 4
00:38:19.417                             : en:Chapter 5
00:47:36.542                             : en:Chapter 6
00:58:54.375                             : en:Chapter 7
01:18:15.417                             : en:Chapter 8
01:26:25.125                             : en:Chapter 9
01:33:03.750                             : en:Chapter 10
01:40:44.042                             : en:Chapter 11
01:48:21.875                             : en:Chapter 12
01:56:51.417                             : en:Chapter 13
02:18:16.125                             : en:Chapter 14
02:39:38.625                             : en:Chapter 15
03:04:39.542                             : en:Chapter 16

Subtitulos

Grupo: DEPTH
Versión: BDRip x264 1080p DTS
Tamaño: 16.4 GB
The.Wild.Pear.Tree.2018.1080p.BluRay.x264-DEPTH

date   15/03/2019
size   16791 mb
length   3 h 8 min
video   1920x808 2pass @ 10958 kb/s
audio   turkish dts 5.1 @ 1509 kb/s
subs   english
url   https://www.imdb.com/title/tt6628102

Subtitulos

Trailer