68
PUNTOS
Calificar
CALIFICA
Calificar
Califica y/o escribe un comentario sobre la película.
Comentarios en el foroFORO

Grass (2018)

Una historia melancólica y alegre sobre los clientes de un café cuyos dueños son fanáticos de la música clásica. Una de las clientas habituales (Kim Minhee) es una mujer que siempre se sienta en una esquina a escribir en su ordenador. Ella encuentra la inspiración en los diálogos que se suceden a su alrededor y, de alguna forma, los adapta y transforma a su gusto introduciéndose ella misma en la historia. ¿Será ella la autora real de todo lo que sucede a su alrededor?
Director Sang-soo Hong
Actores Min-hee Kim, Joobong Kee, Jae-hong Ahn, Jin-young Jung
Duración 66 min
Streaming (Servicio externo)
Grupo: JRP
Versión: BDRip x264 AAC
Tamaño: 375 MB
Title      : Grass
IMDB       : https://www.imdb.com/title/tt7913172/
Video      : 720x380 23.976fps655kbps
Audio      : Korean AAC 2.0136kbps
Subtitles  : English

Subtitulos

Grupo: JRP
Versión: BDRip x264 720p DTS
Tamaño: 2.2 GB
Title      : Grass
IMDB       : https://www.imdb.com/title/tt7913172/
Video      : 1280x672 23.976fps4073kbps
Audio      : Korean DD 5.1640kbps
Subtitles  : English

Subtitulos

Grupo: JRP
Versión: BDRip x264 1080p DTS
Tamaño: 4.4 GB
Title      : Grass
IMDB       : https://www.imdb.com/title/tt7913172/
Video      : 1920x1016 23.976fps8799kbps
Audio      : Korean DD 5.1640kbps
Subtitles  : English

Subtitulos

Grupo: FGT
Versión: BDRip x264 1080p DTS
Tamaño: 7.6 GB
Video
ID : 1
Format : AVC
Format/Info : Advanced Video Codec
Format profile : [email protected]
Format settings : CABAC / 4 Ref Frames
Format settings, CABAC : Yes
Format settings, ReFrames : 4 frames
Codec ID : V_MPEG4/ISO/AVC
Duration : 1 h 6 min
Bit rate : 14.9 Mb/s
Width : 1 920 pixels
Height : 1 012 pixels
Display aspect ratio : 1.897
Frame rate mode : Constant
Frame rate : 23.976 (24000/1001) FPS
Color space : YUV
Chroma subsampling : 4:2:0
Bit depth : 8 bits
Scan type : Progressive
Bits/(Pixel*Frame) : 0.319
Stream size : 6.87 GiB (91%)
Title : Grass.2018.KOREAN.1080p.BluRay.x264.DTS-FGT
Writing library : x264 core 157 r2969 d4099dd
Encoding settings : cabac=1 / ref=4 / deblock=1:-3:-3 / analyse=0x3:0x113 / me=umh / subme=10 / psy=1 / psy_rd=1.01:0.00 / mixed_ref=1 / me_range=32 / chroma_me=1 / trellis=2 / 8x8dct=1 / cqm=0 / deadzone=21,11 / fast_pskip=0 / chroma_qp_offset=-2 / threads=24 / lookahead_threads=4 / sliced_threads=0 / nr=0 / decimate=0 / interlaced=0 / bluray_compat=0 / constrained_intra=0 / bframes=8 / b_pyramid=2 / b_adapt=2 / b_bias=0 / direct=3 / weightb=1 / open_gop=0 / weightp=2 / keyint=240 / keyint_min=23 / scenecut=40 / intra_refresh=0 / rc_lookahead=60 / rc=crf / mbtree=0 / crf=15.8 / qcomp=0.65 / qpmin=0 / qpmax=69 / qpstep=4 / vbv_maxrate=62500 / vbv_bufsize=78125 / crf_max=0.0 / nal_hrd=none / filler=0 / ip_ratio=1.40 / pb_ratio=1.30 / aq=3:0.95
Language : Korean
Default : Yes
Forced : No
Color range : Limited
Color primaries : BT.709
Transfer characteristics : BT.709
Matrix coefficients : BT.709

Audio
ID : 2
Format : DTS
Format/Info : Digital Theater Systems
Codec ID : A_DTS
Duration : 1 h 6 min
Bit rate mode : Constant
Bit rate : 1 509 kb/s
Channel(s) : 6 channels
Channel layout : C L R Ls Rs LFE
Sampling rate : 48.0 kHz
Frame rate : 93.750 FPS (512 SPF)
Bit depth : 24 bits
Compression mode : Lossy
Stream size : 715 MiB (9%)
Title : Grass.2018.KOREAN.1080p.BluRay.x264.DTS-FGT
Language : Korean
Default : No
Forced : No

Text
ID : 3
Format : UTF-8
Codec ID : S_TEXT/UTF8
Codec ID/Info : UTF-8 Plain Text
Duration : 1 h 5 min
Bit rate : 39 b/s
Count of elements : 776
Stream size : 19.2 KiB (0%)
Language : English
Default : Yes
Forced : Yes

Menu
00:00:00.000 : ko:Chapter 01
00:07:26.154 : ko:Chapter 02
00:16:21.522 : ko:Chapter 03
00:25:37.244 : ko:Chapter 04
00:38:49.368 : ko:Chapter 05
00:46:50.140 : ko:Chapter 06
01:05:19.081 : ko:Chapter 07

Subtitulos

Trailer