72
PUNTOS
Calificar
CALIFICA
Calificar
Califica y/o escribe un comentario sobre la película.
Comentarios en el foroFORO

Diqiu zuihou de yewan (2018)

Luo Hongwu regresa a Kaili, su ciudad natal, de la que huyó hace varios años. Comienza la búsqueda de la mujer que amaba, y a quien nunca ha podido olvidar. Ella dijo que su nombre era Wan Quiwen.
Director Gan Bi
Actores Wei Tang, Jue Huang, Sylvia Chang, Hong-Chi Lee
Duración 138 min
Streaming (Servicio externo)
Grupo: EA
Versión: BDRip x264 1080p AC3
Tamaño: 13.2 GB
General
Unique ID : 38464316075515838008302583751193308336 (0x1CEFF5332B2A75DBBC87A92F628EACB0)
Complete name : Di qiu zui hou de ye wan 2018 1080p BluRay DD5.1 x264-EA.mkv
Format : Matroska
Format version : Version 4
File size : 13.2 GiB
Duration : 2 h 18 min
Overall bit rate : 13.6 Mb/s
Movie name : Bi Gan - Di qiu zui hou de ye wan ('Long Day's Journey Into Night') (2018)
Encoded date : UTC 2019-06-30 19:27:28
Writing application : mkvmerge v35.0.0 ('All The Love In The World') 64-bit
Writing library : libebml v1.3.9 + libmatroska v1.5.2

Video
ID : 1
Format : AVC
Format/Info : Advanced Video Codec
Format profile : [email protected]
Format settings : CABAC / 4 Ref Frames
Format settings, CABAC : Yes
Format settings, Reference frames : 4 frames
Codec ID : V_MPEG4/ISO/AVC
Duration : 2 h 18 min
Bit rate : 13.0 Mb/s
Width : 1 920 pixels
Height : 1 040 pixels
Display aspect ratio : 1.85:1
Frame rate mode : Constant
Frame rate : 23.976 (24000/1001) FPS
Color space : YUV
Chroma subsampling : 4:2:0
Bit depth : 8 bits
Scan type : Progressive
Bits/(Pixel*Frame) : 0.271
Stream size : 12.6 GiB (95%)
Title : -EA
Writing library : x264 core 157 r2970+47 cae74a0 t_mod_New [[email protected] X86_64]
Encoding settings : cabac=1 / ref=4 / deblock=1:-3:-3 / analyse=0x3:0x113 / me=umh / subme=10 / psy=1 / fade_compensate=0.00 / psy_rd=1.02:0.00 / mixed_ref=1 / me_range=32 / chroma_me=1 / trellis=2 / 8x8dct=1 / cqm=0 / deadzone=21,11 / fast_pskip=0 / chroma_qp_offset=-2 / threads=18 / lookahead_threads=3 / sliced_threads=0 / nr=0 / decimate=0 / interlaced=0 / bluray_compat=0 / constrained_intra=0 / fgo=0 / bframes=8 / b_pyramid=2 / b_adapt=2 / b_bias=0 / direct=3 / weightb=1 / open_gop=0 / weightp=2 / keyint=240 / keyint_min=23 / scenecut=40 / intra_refresh=0 / rc_lookahead=60 / rc=crf / mbtree=0 / crf=18.8000 / qcomp=0.65 / qpmin=0:0:0 / qpmax=69:69:69 / qpstep=4 / vbv_maxrate=62500 / vbv_bufsize=78125 / crf_max=0.0 / nal_hrd=none / filler=0 / ip_ratio=1.40 / pb_ratio=1.30 / aq=3:0.85 / aq-sensitivity=10.00 / aq-factor=1.00:1.00:1.00 / aq2=1:0.80 / aq2-sensitivity=15.00 / aq2-factor=1.00:1.00:1.00 / aq3=1:[0.80:0.80]:[0.80:0.80]:[0.80:0.80]:[0.80:0.80] / aq3-sensitivity=10.00 / aq3-factor=[1.00:1.00]:[1.00:1.00]:[1.00:1.00] / aq3-boundary=192:64:24
Language : Chinese
Default : Yes
Forced : No
Color range : Limited
Color primaries : BT.709
Transfer characteristics : BT.709
Matrix coefficients : BT.709

Audio
ID : 2
Format : AC-3
Format/Info : Audio Coding 3
Commercial name : Dolby Digital
Codec ID : A_AC3
Duration : 2 h 18 min
Bit rate mode : Constant
Bit rate : 640 kb/s
Channel(s) : 6 channels
Channel layout : L R C LFE Ls Rs
Sampling rate : 48.0 kHz
Frame rate : 31.250 FPS (1536 SPF)
Bit depth : 16 bits
Compression mode : Lossy
Stream size : 636 MiB (5%)
Language : Chinese
Service kind : Complete Main
Default : Yes
Forced : No

Text
ID : 3
Format : PGS
Muxing mode : zlib
Codec ID : S_HDMV/PGS
Codec ID/Info : Picture based subtitle format used on BDs/HD-DVDs
Duration : 2 h 10 min
Bit rate : 13.6 kb/s
Count of elements : 1648
Stream size : 12.7 MiB (0%)
Title : sup
Language : French
Default : No
Forced : No

Menu
00:00:00.000 : :Chapter 01
00:10:45.562 : :Chapter 02
00:23:32.161 : :Chapter 03
00:33:02.480 : :Chapter 04
00:44:31.085 : :Chapter 05
00:54:37.065 : :Chapter 06
01:10:17.422 : :Chapter 07
01:25:53.523 : :Chapter 08
01:41:48.436 : :Chapter 09
01:56:33.278 : :Chapter 10
02:11:34.887 : :Chapter 11
02:18:19.875 : :Chapter 12

Subtitulos

Trailer