75
PUNTOS
Calificar
CALIFICA
Calificar
Califica y/o escribe un comentario sobre la película.
Comentarios en el foroFORO

Grâce à Dieu (2019)

Alexandre vive en Lyon con su esposa e hijos. Por casualidad, se entera de que el sacerdote que abusó de él cuando era un boy scout sigue trabajando con niños. Se lanza a un combate al que se unen François y Emmanuel, otras víctimas del sacerdote, con el fin de liberarse de sus sufrimientos a través de la palabra. Pero las repercusiones y consecuencias de sus testimonios no dejarán a nadie indemne. Basada en el caso real de Bernard Preynat, sacerdote de la Diócesis de Lyon, acusado en 2016 de abusar sexualmente de decenas de niños.
Director François Ozon
Actores Melvil Poupaud, Denis Ménochet, Swann Arlaud, Éric Caravaca
Duración 137 min
Streaming (Servicio externo)
Grupo: EX0DUS
Versión: BDRip x264 1080p DTS
Tamaño: 12.0 GB
General
Unique ID : 132881211190679187272326167704717617996 (0x63F7FD88BF763EFF42A3F76F1105EB4C)
Complete name : Grace.A.Dieu.2018.FRENCH.1080p.BluRay.x264-EX0DUS.mkv
Format : Matroska
Format version : Version 4
File size : 12.0 GiB
Duration : 2 h 17 min
Overall bit rate : 12.5 Mb/s
Encoded date : UTC 2019-06-30 21:45:59
Writing application : mkvmerge v21.0.0 ('Tardigrades Will Inherit The Earth') 64-bit
Writing library : libebml v1.3.5 + libmatroska v1.4.8

Video
ID : 1
Format : AVC
Format/Info : Advanced Video Codec
Format profile : [email protected]
Format settings : CABAC / 4 Ref Frames
Format settings, CABAC : Yes
Format settings, Reference frames : 4 frames
Codec ID : V_MPEG4/ISO/AVC
Duration : 2 h 17 min
Bit rate : 11.0 Mb/s
Width : 1 920 pixels
Height : 1 040 pixels
Display aspect ratio : 1.85:1
Frame rate mode : Constant
Frame rate : 24.000 FPS
Color space : YUV
Chroma subsampling : 4:2:0
Bit depth : 8 bits
Scan type : Progressive
Bits/(Pixel*Frame) : 0.230
Stream size : 10.6 GiB (88%)
Writing library : x264 core 157 r2969 d4099dd
Encoding settings : cabac=1 / ref=4 / deblock=1:-3:-3 / analyse=0x3:0x113 / me=umh / subme=8 / psy=1 / psy_rd=1.00:0.00 / mixed_ref=1 / me_range=16 / chroma_me=1 / trellis=2 / 8x8dct=1 / cqm=0 / deadzone=21,11 / fast_pskip=0 / chroma_qp_offset=-2 / threads=24 / lookahead_threads=4 / sliced_threads=0 / nr=0 / decimate=1 / interlaced=0 / bluray_compat=0 / constrained_intra=0 / bframes=3 / b_pyramid=2 / b_adapt=1 / b_bias=0 / direct=1 / weightb=1 / open_gop=0 / weightp=2 / keyint=250 / keyint_min=24 / scenecut=40 / intra_refresh=0 / rc_lookahead=40 / rc=2pass / mbtree=1 / bitrate=11007 / ratetol=1.0 / qcomp=0.60 / qpmin=0 / qpmax=69 / qpstep=4 / cplxblur=20.0 / qblur=0.5 / ip_ratio=1.40 / aq=1:1.00
Language : English
Default : Yes
Forced : No

Audio
ID : 2
Format : DTS
Format/Info : Digital Theater Systems
Codec ID : A_DTS
Duration : 2 h 17 min
Bit rate mode : Constant
Bit rate : 1 509 kb/s
Channel(s) : 6 channels
Channel layout : C L R Ls Rs LFE
Sampling rate : 48.0 kHz
Frame rate : 93.750 FPS (512 SPF)
Bit depth : 24 bits
Compression mode : Lossy
Stream size : 1.45 GiB (12%)
Language : French
Default : Yes
Forced : No

Text
ID : 3
Format : UTF-8
Codec ID : S_TEXT/UTF8
Codec ID/Info : UTF-8 Plain Text
Duration : 2 h 17 min
Bit rate : 76 b/s
Count of elements : 2120
Stream size : 76.5 KiB (0%)
Language : French
Default : No
Forced : No

Menu
00:00:00.000 : en:00:00:00.000
00:11:57.417 : en:00:11:57.417
00:23:38.333 : en:00:23:38.333
00:31:06.667 : en:00:31:06.667
00:41:32.000 : en:00:41:32.000
00:56:02.500 : en:00:56:02.500
01:06:39.625 : en:01:06:39.625
01:19:04.875 : en:01:19:04.875
01:28:45.958 : en:01:28:45.958
01:40:01.083 : en:01:40:01.083
01:49:56.833 : en:01:49:56.833
02:01:04.792 : en:02:01:04.792

Subtitulos

Grupo: EXTREME
Versión: BDRip XviD
Tamaño: 1.4 GB
General
Complete name                  : Grace.A.Dieu.2018.FRENCH.BDRip.XviD-EXTREME.avi
Format                         : AVI
Format/Info                    : Audio Video Interleave
Format profile                 : OpenDML
Format settings                : rec
File size                      : 1.37 GiB
Duration                       : 2h 17mn
Overall bit rate               : 1 423 Kbps
Writing application            : AVI-Mux GUI 1.17.8, Aug 30 2008  12:36:58

Video
ID                             : 0
Format                         : MPEG-4 Visual
Format profile                 : Advanced [email protected]
Format settings, BVOP          : 1
Format settings, QPel          : No
Format settings, GMC           : No warppoints
Format settings, Matrix        : Default (H.263)
Codec ID                       : XVID
Codec ID/Hint                  : XviD
Duration                       : 2h 17mn
Bit rate                       : 1 288 Kbps
Width                          : 720 pixels
Height                         : 392 pixels
Display aspect ratio           : 1.85:1
Frame rate                     : 24.000 fps
Color space                    : YUV
Chroma subsampling             : 4:2:0
Bit depth                      : 8 bits
Scan type                      : Progressive
Compression mode               : Lossy
Bits/(Pixel*Frame)             : 0.190
Stream size                    : 1.24 GiB (91%)
Writing library                : XviD 67

Audio
ID                             : 1
Format                         : MPEG Audio
Format version                 : Version 1
Format profile                 : Layer 3
Mode                           : Joint stereo
Mode extension                 : MS Stereo
Codec ID                       : 55
Codec ID/Hint                  : MP3
Duration                       : 2h 15mn
Bit rate mode                  : Constant
Bit rate                       : 128 Kbps
Channel(s)                     : 2 channels
Sampling rate                  : 48.0 KHz
Compression mode               : Lossy
Stream size                    : 124 MiB (9%)
Alignment                      : Aligned on interleaves
Interleave, duration           : 24 ms (0.59 video frame)
Interleave, preload duration   : 192 ms
Title                          : M
Writing library                : LAME3.100ª

Subtitulos

Trailer