76
PUNTOS
Calificar
CALIFICA
Calificar
Califica y/o escribe un comentario sobre la película.
Comentarios en el foroFORO

Afacerea Est (2016)

La historia sigue a Marian, un cantante de coro de 45 años que necesita desesperadamente conseguir dinero para casarse con su amada Veronica. Para conseguir la inversión inicial para un lucrativo negocio, Marian tiene que vender su moto. El comprador es Petro, un albañil de 40 años y este será el abrupto comienzo de una improbable amistad, ya que los dos hombres se convierten en socios en busca de dinero fácil.
Director Igor Cobileanski
Actores Ion Sapdaru, Constantin Puscasu, Daniel Busuioc, Anne Marie Chertic
Duración 87 min
Streaming (Servicio externo)
Grupo: RIYE
Versión: WebRip x264 1080p AAC
Tamaño: 1.9 GB
General
Unique ID : 190819333456420873734423213798843870935 (0x8F8E7781FC52AA7CD269687FF479EED7)
Complete name : Afacerea.Est.2016.Igor.Cobileanski.1080p.WEBRip.AAC.x264.RIYE.mkv
Format : Matroska
Format version : Version 4 / Version 2
File size : 1.90 GiB
Duration : 1 h 27 min
Overall bit rate : 3 116 kb/s
Encoded date : UTC 2018-05-03 23:14:26
Writing application : mkvmerge v23.0.0 ('The Bride Said No') 64-bit
Writing library : libebml v1.3.6 + libmatroska v1.4.9

Video
ID : 1
Format : AVC
Format/Info : Advanced Video Codec
Format profile : [email protected]
Format settings, CABAC : Yes
Format settings, ReFrames : 4 frames
Codec ID : V_MPEG4/ISO/AVC
Duration : 1 h 27 min
Bit rate : 2 795 kb/s
Width : 1 920 pixels
Height : 1 080 pixels
Display aspect ratio : 16:9
Frame rate mode : Constant
Frame rate : 24.000 FPS
Color space : YUV
Chroma subsampling : 4:2:0
Bit depth : 8 bits
Scan type : Progressive
Bits/(Pixel*Frame) : 0.056
Stream size : 1.70 GiB (90%)
Writing library : Zencoder Video Encoding System
Default : Yes
Forced : No
Color range : Limited
Color primaries : BT.709
Transfer characteristics : BT.709
Matrix coefficients : BT.709

Audio
ID : 2
Format : AAC
Format/Info : Advanced Audio Codec
Format profile : LC
Codec ID : A_AAC
Duration : 1 h 27 min
Bit rate : 319 kb/s
Channel(s) : 2 channels
Channel positions : Front: L R
Sampling rate : 48.0 kHz
Frame rate : 46.875 FPS (1024 spf)
Compression mode : Lossy
Delay relative to video : -54 ms
Stream size : 199 MiB (10%)
Default : Yes
Forced : No

Subtitulos

Trailer