21
PUNTOS
Calificar
CALIFICA
Calificar
Califica y/o escribe un comentario sobre la película.
Comentarios en el foroFORO

Legend of the Red Reaper (2014)

Ya han pasado 100 años desde que la Bruja Adivina les entregó a los demonios a su hija, la Segadora Roja, mitad humana mitad demonio. Los segadores, un clan sagrado de guerreros mitad humanos mitad demonios, rescataron y criaron a Aella como si fuera una de ellos, a pesar de que ella era más demonio que ellos. La Segadora Roja no estaba teniendo una buena vida: su madre la había abandonado, no estaba de acuerdo con su familia segadora, le costaba dominar su entrenamiento como segadora y, además, estaba enamorada del único hombre que jamás podría tener. Era inexperta, no había sido puesta a prueba y no compartía ninguna de las habilidades mágicas de su madre; ni siquiera podía ver el futuro, el mejor don de su madre. Hasta que llegó la hora de la verdad y el mundo jamás volvió a ser el mismo.
Director Tara Cardinal
Actores Tara Cardinal, David Mackey, Ray Eddy, Eliza Swenson
Duración 99 min
Streaming (Servicio externo)
Grupo: MiLLENiUM
Versión: BDRip x264 AC3
Tamaño: 1.0 GB
Format : Matroska
Format version : Version 2
File size : 1.04 GiB
Duration : 1h 40mn
Overall bit rate mode : Variable
Overall bit rate : 1 481 Kbps
Encoded date : UTC 2014-03-02 13:16:45
Writing application : mkvmerge v6.5.0 ('Isn't she lovely') built on Oct 20 2013 12:50:05
Writing library : libebml v1.3.0 + libmatroska v1.4.1

Video
ID : 1
Format : AVC
Format/Info : Advanced Video Codec
Format profile : [email protected]
Format settings, CABAC : Yes
Format settings, ReFrames : 3 frames
Codec ID : V_MPEG4/ISO/AVC
Duration : 1h 40mn
Bit rate mode : Variable
Bit rate : 1 067 Kbps
Maximum bit rate : 40.0 Mbps
Width : 720 pixels
Height : 400 pixels
Display aspect ratio : 16:9
Frame rate mode : Constant
Frame rate : 23.976 fps
Color space : YUV
Chroma subsampling : 4:2:0
Bit depth : 8 bits
Scan type : Progressive
Bits/(Pixel*Frame) : 0.155
Stream size : 768 MiB (72%)
Writing library : x264 core 138 r2358 9e941d1

Audio
ID : 2
Format : AC-3
Format/Info : Audio Coding 3
Mode extension : CM (complete main)
Format settings, Endianness : Big
Codec ID : A_AC3
Duration : 1h 40mn
Bit rate mode : Constant
Bit rate : 384 Kbps
Channel(s) : 6 channels
Channel positions : Front: L C R, Side: L R, LFE
Sampling rate : 48.0 KHz
Bit depth : 16 bits
Compression mode : Lossy
Stream size : 276 MiB (26%)
Language : English
Default : Yes
Forced : No

Subtitulos

Trailer