49
PUNTOS
Calificar
CALIFICA
Calificar
Califica y/o escribe un comentario sobre la película.
Comentarios en el foroFORO

Une jeunesse dorée (2019)

Rose, una chica de 16 años que fue abandonada por sus padres cuando era niña, y su novio, Michel, de 22 años, viven su primera gran historia de amor en el París de 1979, durante los años del Palace. Ambos se integran en un ambiente de excéntricos y modernos que solo viven para la juerga y la exuberancia. En una fiesta, conocen a Lucille y Hubert, una pareja de burgueses bohemios de unos 50 años, que les acogerán bajo sus alas y cambiarán sus vidas.
Director Eva Ionesco
Actores Isabelle Huppert, Galatéa Bellugi, Melvil Poupaud, Lukas Ionesco
Duración 118 min
Streaming (Servicio externo)
Grupo: EXTREME
Versión: WEB H.264 1080p
Tamaño: 4.2 GB
General
Unique ID : 197285443012637120936336453660979979993 (0x946BCB52970C9B75BCF62C620FB766D9)
Complete name : Une.Jeunesse.Dorée.2018.FRENCH.1080p.WEB.H264-EXTREME.mkv
Format : Matroska
Format version : Version 4
File size : 4.21 GiB
Duration : 1 h 47 min
Overall bit rate : 5 591 kb/s
Encoded date : UTC 2019-05-16 01:48:45
Writing application : mkvmerge v33.0.0 ('A Little Bit of Madness') 64-bit
Writing library : libebml v1.3.7 + libmatroska v1.5.0

Video
ID : 2
Format : AVC
Format/Info : Advanced Video Codec
Format profile : [email protected]
Format settings : CABAC / 4 Ref Frames
Format settings, CABAC : Yes
Format settings, ReFrames : 4 frames
Codec ID : V_MPEG4/ISO/AVC
Duration : 1 h 47 min
Bit rate : 5 205 kb/s
Width : 1 920 pixels
Height : 1 038 pixels
Display aspect ratio : 1.85:1
Frame rate mode : Constant
Frame rate : 25.000 FPS
Color space : YUV
Chroma subsampling : 4:2:0
Bit depth : 8 bits
Scan type : Progressive
Bits/(Pixel*Frame) : 0.104
Stream size : 3.92 GiB (93%)
Language : English
Default : Yes
Forced : No
Color range : Limited
Color primaries : BT.709
Transfer characteristics : BT.709
Matrix coefficients : BT.709

Audio
ID : 1
Format : AC-3
Format/Info : Audio Coding 3
Commercial name : Dolby Digital
Codec ID : A_AC3
Duration : 1 h 47 min
Bit rate mode : Constant
Bit rate : 384 kb/s
Channel(s) : 6 channels
Channel layout : L R C LFE Ls Rs
Sampling rate : 48.0 kHz
Frame rate : 31.250 FPS (1536 SPF)
Bit depth : 16 bits
Compression mode : Lossy
Delay relative to video : -40 ms
Stream size : 296 MiB (7%)
Language : French
Service kind : Complete Main
Default : Yes
Forced : No

Subtitulos

Trailer