62
PUNTOS
Calificar
CALIFICA
Calificar
Califica y/o escribe un comentario sobre la película.
Comentarios en el foroFORO

Le vent tourne (2018)

El sueño de Pauline y de Alex de vivir una vida alejada de la civilización se hace realidad cuando encuentran una granja situada en las montañas de Jura, en la cordillera de los Alpes. Allí ambos pueden vivir en armonía con la naturaleza. Pero para poder ser del todo autosuficientes necesitan una fuente de energía propia, tarea que encomiendan a un ingenierio llamado Samuel, que revisa la construcción de una turbina de viento.
Director Bettina Oberli
Actores Mélanie Thierry, Pierre Deladonchamps, Nuno Lopes, Anastasia Shevtsova
Duración 88 min
Streaming (Servicio externo)
Grupo: LAZARUS
Versión: WEB-DL H264 1080p
Tamaño: 3.0 GB
General
Unique ID : 10939450829878380085757153767509679005 (0x83ADC915934867F6AA6050008775B9D)
Complete name : The.Wind.Turns.2018.FRENCH.1080p.WEB-DL.DD5.1.H264-LAZARUS.mkv
Format : Matroska
Format version : Version 4 / Version 2
File size : 3.01 GiB
Duration : 1 h 26 min
Overall bit rate : 4 978 kb/s
Encoded date : UTC 2019-01-30 10:16:42
Writing application : mkvmerge v30.1.0 ('Forever And More') 64-bit
Writing library : libebml v1.3.6 + libmatroska v1.4.9

Video
ID : 1
Format : AVC
Format/Info : Advanced Video Codec
Format profile : [email protected]
Format settings, CABAC : Yes
Format settings, ReFrames : 5 frames
Codec ID : V_MPEG4/ISO/AVC
Duration : 1 h 26 min
Bit rate : 4 592 kb/s
Width : 1 916 pixels
Height : 804 pixels
Display aspect ratio : 2.40:1
Frame rate mode : Constant
Frame rate : 24.000 FPS
Color space : YUV
Chroma subsampling : 4:2:0
Bit depth : 8 bits
Scan type : Progressive
Bits/(Pixel*Frame) : 0.124
Stream size : 2.77 GiB (92%)
Language : English
Default : Yes
Forced : No
Color range : Limited
Color primaries : BT.709
Transfer characteristics : BT.709
Matrix coefficients : BT.709

Audio
ID : 2
Format : AC-3
Format/Info : Audio Coding 3
Mode extension : CM (complete main)
Format settings, Endianness : Big
Codec ID : A_AC3
Duration : 1 h 26 min
Bit rate mode : Constant
Bit rate : 384 kb/s
Channel(s) : 6 channels
Channel positions : Front: L C R, Side: L R, LFE
Sampling rate : 48.0 kHz
Frame rate : 31.250 FPS (1536 spf)
Bit depth : 16 bits
Compression mode : Lossy
Delay relative to video : -42 ms
Stream size : 238 MiB (8%)
Title : AC3 5.1
Language : French
Default : Yes
Forced : No

Text
ID : 3
Format : UTF-8
Codec ID : S_TEXT/UTF8
Codec ID/Info : UTF-8 Plain Text
Duration : 1 h 4 min
Bit rate : 4 b/s
Count of elements : 82
Stream size : 1.98 KiB (0%)
Title : Forced
Language : French
Default : Yes
Forced : Yes

Subtitulos

Trailer