72
PUNTOS
Calificar
CALIFICA
Calificar
Califica y/o escribe un comentario sobre la película.
Comentarios en el foroFORO

Lerd (2017)

Reza trabaja en una piscifactoría y lleva una vida sencilla y tranquila con su mujer y su hijo en un pueblo del norte de Irán. Pero una compañía privada con contactos en el gobierno y las autoridades ha tomado el control de la vida en la región. Bajo la presión de esta compañía, mucha gente participa en una extensa red de corrupción.
Director Mohammad Rasoulof
Actores Reza Akhlaghirad, Soudabeh Beizaee, Nasim Adabi, Zeinab Shabani
Duración 113 min
Streaming (Servicio externo)
Grupo: MKO
Versión: BDRip x264 AC3
Tamaño: 2.2 GB
General
Unique ID                                : 278297538455380238608730326478428017344 (0xD15E2801B5013379F20D91F2670392C0)
Complete name                            : A.Man.of.Integrity.2017.576p.BRRip.x264-MKO.mkv
Format                                   : Matroska
Format version                           : Version 4 / Version 2
File size                                : 2.10 GiB
Duration                                 : 1 h 53 min
Overall bit rate                         : 2 650 kb/s
Encoded date                             : UTC 2018-06-08 20:15:44
Writing application                      : mkvmerge v23.0.0 ('The Bride Said No') 64-bit
Writing library                          : libebml v1.3.6 + libmatroska v1.4.9

Video
ID                                       : 1
Format                                   : AVC
Format/Info                              : Advanced Video Codec
Format profile                           : [email protected]
Format settings                          : CABAC / 12 Ref Frames
Format settings, CABAC                   : Yes
Format settings, ReFrames                : 12 frames
Codec ID                                 : V_MPEG4/ISO/AVC
Duration                                 : 1 h 53 min
Bit rate                                 : 2 200 kb/s
Width                                    : 1 024 pixels
Height                                   : 430 pixels
Display aspect ratio                     : 2.40:1
Frame rate mode                          : Constant
Frame rate                               : 25.000 FPS
Color space                              : YUV
Chroma subsampling                       : 4:2:0
Bit depth                                : 8 bits
Scan type                                : Progressive
Bits/(Pixel*Frame)                       : 0.200
Stream size                              : 1.74 GiB (83%)
Writing library                          : x264 core 155 r2893 b00bcaf
Encoding settings                        : cabac=1 / ref=12 / deblock=1:-3:-3 / analyse=0x3:0x133 / me=umh / subme=9 / psy=1 / psy_rd=1.00:0.00 / mixed_ref=1 / me_range=24 / chroma_me=1 / trellis=2 / 8x8dct=1 / cqm=0 / deadzone=21,11 / fast_pskip=0 / chroma_qp_offset=-2 / threads=12 / lookahead_threads=1 / sliced_threads=0 / nr=0 / decimate=1 / interlaced=0 / bluray_compat=0 / constrained_intra=0 / bframes=6 / b_pyramid=2 / b_adapt=2 / b_bias=0 / direct=3 / weightb=1 / open_gop=0 / weightp=2 / keyint=250 / keyint_min=25 / scenecut=40 / intra_refresh=0 / rc_lookahead=60 / rc=2pass / mbtree=1 / bitrate=2200 / ratetol=1.0 / qcomp=0.60 / qpmin=0 / qpmax=69 / qpstep=4 / cplxblur=20.0 / qblur=0.5 / vbv_maxrate=62500 / vbv_bufsize=78125 / nal_hrd=none / filler=0 / ip_ratio=1.40 / aq=2:1.00
Default                                  : Yes
Forced                                   : No
Color range                              : Limited
Color primaries                          : BT.709
Transfer characteristics                 : BT.709
Matrix coefficients                      : BT.709

Audio
ID                                       : 2
Format                                   : AC-3
Format/Info                              : Audio Coding 3
Codec ID                                 : A_AC3
Duration                                 : 1 h 53 min
Bit rate mode                            : Constant
Bit rate                                 : 448 kb/s
Channel(s)                               : 6 channels
Channel positions                        : Front: L C R, Side: L R, LFE
Sampling rate                            : 48.0 kHz
Frame rate                               : 31.250 FPS (1536 SPF)
Bit depth                                : 16 bits
Compression mode                         : Lossy
Stream size                              : 363 MiB (17%)
Title                                    : Surround
Language                                 : Persian
Service kind                             : Complete Main
Default                                  : Yes
Forced                                   : No

Text
ID                                       : 3
Format                                   : UTF-8
Codec ID                                 : S_TEXT/UTF8
Codec ID/Info                            : UTF-8 Plain Text
Duration                                 : 1 h 51 min
Bit rate                                 : 34 b/s
Count of elements                        : 891
Stream size                              : 28.3 KiB (0%)
Default                                  : Yes
Forced                                   : No

Menu
00:00:00.000                             : :00:00:00.000
00:09:44.160                             : :00:09:44.160
00:18:42.880                             : :00:18:42.880
00:26:39.200                             : :00:26:39.040
00:31:38.440                             : :00:31:38.440
00:41:33.560                             : :00:41:33.560
00:50:42.560                             : :00:50:42.560
01:00:53.720                             : :01:00:53.720
01:09:22.280                             : :01:09:22.280
01:14:56.520                             : :01:14:56.520
01:22:13.760                             : :01:22:13.640
01:30:53.520                             : :01:30:53.520
01:38:49.560                             : :01:38:49.560
01:45:12.760                             : :01:45:12.760
01:50:09.280                             : :01:50:09.080

Subtitulos

Trailer