64
PUNTOS
Calificar
CALIFICA
Calificar
Califica y/o escribe un comentario sobre la película.
Comentarios en el foroFORO

Fortunata (2017)

Relata la historia de una joven madre (Jasmine Trinca) que, con un matrimonio fallido a sus espaldas, hace lo posible por luchar día tras día para alcanzar su sueño: abrir una peluquería con la que desafiar a su destino, en un intento de emanciparse y conquistar la independencia y su derecho a la felicidad.
Director Sergio Castellitto
Actores Jasmine Trinca, Stefano Accorsi, Alessandro Borghi, Edoardo Pesce
Duración 103 min
Streaming (Servicio externo)
Grupo: BLUWORLD
Versión: BDRip x264 1080p DTS
Tamaño: 6.9 GB
General
Unique ID : 220049828957651720993669920527569105717 (0xA58C0E343E8351631EAC98D2C163B335)
Complete name : Fortunata.2017.iTALiAN.DTS.1080p.BluRay.x264-BLUWORLD.mkv
Format : Matroska
Format version : Version 2
File size : 6.46 GiB
Duration : 1h 42mn
Overall bit rate mode : Variable
Overall bit rate : 9 005 Kbps
Movie name : FORTUNATA.Title1002
Encoded date : UTC 2017-10-19 12:23:31
Writing application : mkvmerge v5.6.0 ('Kenya Kane') built on May 28 2012 06:47:39
Writing library : libebml v1.2.2 + libmatroska v1.3.0
DURATION : 01:34:28.041000000
NUMBER_OF_FRAMES : 1121
NUMBER_OF_BYTES : 42288
_STATISTICS_WRITING_APP : mkvmerge v9.6.0 ('Slave To Your Mind') 64bit
_STATISTICS_WRITING_DATE_UTC : 2017-10-18 12:41:34
_STATISTICS_TAGS : BPS DURATION NUMBER_OF_FRAMES NUMBER_OF_BYTES

Video
ID : 1
Format : AVC
Format/Info : Advanced Video Codec
Format profile : [email protected]
Format settings, CABAC : Yes
Format settings, ReFrames : 3 frames
Muxing mode : Header stripping
Codec ID : V_MPEG4/ISO/AVC
Duration : 1h 42mn
Bit rate mode : Variable
Bit rate : 7 500 Kbps
Maximum bit rate : 25.0 Mbps
Width : 1 920 pixels
Height : 800 pixels
Display aspect ratio : 2.40:1
Frame rate : 24.000 fps
Color space : YUV
Chroma subsampling : 4:2:0
Bit depth : 8 bits
Scan type : Progressive
Bits/(Pixel*Frame) : 0.203
Stream size : 5.25 GiB (81%)
Writing library : x264 core 152 r2851 ba24899
Encoding settings : cabac=1 / ref=3 / deblock=1:0:0 / analyse=0x3:0x113 / me=hex / subme=7 / psy=1 / psy_rd=1.00:0.00 / mixed_ref=1 / me_range=16 / chroma_me=1 / trellis=1 / 8x8dct=1 / cqm=0 / deadzone=21,11 / fast_pskip=1 / chroma_qp_offset=-2 / threads=12 / lookahead_threads=2 / sliced_threads=0 / nr=0 / decimate=1 / interlaced=0 / bluray_compat=0 / constrained_intra=0 / bframes=3 / b_pyramid=0 / b_adapt=1 / b_bias=0 / direct=1 / weightb=1 / open_gop=0 / weightp=2 / keyint=240 / keyint_min=24 / scenecut=40 / intra_refresh=0 / rc_lookahead=40 / rc=2pass / mbtree=1 / bitrate=7500 / ratetol=1.0 / qcomp=0.60 / qpmin=0 / qpmax=69 / qpstep=4 / cplxblur=20.0 / qblur=0.5 / vbv_maxrate=25000 / vbv_bufsize=25000 / nal_hrd=vbr / filler=0 / ip_ratio=1.40 / aq=1:1.00
Default : Yes
Forced : No

Audio
ID : 2
Format : DTS
Format/Info : Digital Theater Systems
Muxing mode : Header stripping
Codec ID : A_DTS
Duration : 1h 42mn
Bit rate mode : Constant
Bit rate : 1 510 Kbps
Channel(s) : 6 channels
Channel positions : Front: L C R, Side: L R, LFE
Sampling rate : 48.0 KHz
Bit depth : 16 bits
Compression mode : Lossy
Stream size : 1.08 GiB (17%)
Title : Ita. DTS 1510 Kbps
Language : Italian
Default : Yes
Forced : No

Text
ID : 3
Format : UTF-8
Codec ID : S_TEXT/UTF8
Codec ID/Info : UTF-8 Plain Text
Title : Sub. Ita. Non Udenti
Language : Italian
Default : No
Forced : No

Menu
00:00:00.000 : en:(01)00:00:00:000
00:09:53.833 : en:(02)00:09:53:833
00:16:53.833 : en:(03)00:16:53:833
00:25:16.208 : en:(04)00:25:16:208
00:35:02.833 : en:(05)00:35:02:833
00:42:43.833 : en:(06)00:42:43:833
00:51:05.833 : en:(07)00:51:05:833
00:59:51.833 : en:(08)00:59:51:833
01:08:05.625 : en:(09)01:08:05:625
01:16:23.000 : en:(10)01:16:23:000
01:26:42.208 : en:(11)01:26:42:208
01:34:16.000 : en:(12)01:34:16:000
Trailer