73
PUNTOS
Calificar
CALIFICA
Calificar
Califica y/o escribe un comentario sobre la película.
Comentarios en el foroFORO

Lady and the Tramp (1955)

Reina es una preciosa perrita de pura raza que vive feliz en su hogar. Isabel y Jaime, la miman mucho y ella corresponde feliz a sus cuidados. Sin embargo, el día en que sus dueños deciden hacer un viaje, la vida de Reina se ve alterada; la llegada de la tía Clara con sus gatos no provoca más que sobresaltos. Menos mal que conoce a Golfo, un perro vagabundo muy simpático.
Director Clyde Geronimi, Wilfred Jackson, Hamilton Luske
Actores Barbara Luddy, Larry Roberts, Peggy Lee, Bill Thompson
Duración 76 min
Streaming (Servicio externo)
Grupo: RARBG
Versión: BDRip H.264 720p AAC
Tamaño: 950 MB
Lady.and.the.Tramp.1955.720p.BluRay.H264.AAC-RARBG

Video
ID : 1
Format : AVC
Format/Info : Advanced Video Codec
Format profile : [email protected]
Format settings : CABAC / 4 Ref Frames
Format settings, CABAC : Yes
Format settings, ReFrames : 4 frames
Codec ID : avc1
Codec ID/Info : Advanced Video Coding
Duration : 1 h 16 min
Bit rate : 1 500 kb/s
Width : 1 280 pixels
Height : 502 pixels
Display aspect ratio : 2.552
Original display aspect ratio : 2.553
Frame rate mode : Constant
Frame rate : 23.976 (23976/1000) FPS
Color space : YUV
Chroma subsampling : 4:2:0
Bit depth : 8 bits
Scan type : Progressive
Bits/(Pixel*Frame) : 0.097
Stream size : 820 MiB (87%)
Writing library : x264 core 152 r2851M ba24899
Encoding settings : cabac=1 / ref=4 / deblock=1:-1:-1 / analyse=0x3:0x113 / me=umh / subme=9 / psy=1 / psy_rd=1.00:0.15 / mixed_ref=1 / me_range=24 / chroma_me=1 / trellis=2 / 8x8dct=1 / cqm=0 / deadzone=21,11 / fast_pskip=1 / chroma_qp_offset=-3 / threads=32 / lookahead_threads=4 / sliced_threads=0 / nr=0 / decimate=1 / interlaced=0 / bluray_compat=0 / constrained_intra=0 / bframes=3 / b_pyramid=2 / b_adapt=2 / b_bias=0 / direct=3 / weightb=1 / open_gop=0 / weightp=2 / keyint=250 / keyint_min=25 / scenecut=40 / intra_refresh=0 / rc_lookahead=50 / rc=2pass / mbtree=1 / bitrate=1500 / ratetol=1.0 / qcomp=0.60 / qpmin=0 / qpmax=69 / qpstep=4 / cplxblur=20.0 / qblur=0.5 / vbv_maxrate=31250 / vbv_bufsize=31250 / nal_hrd=none / filler=0 / ip_ratio=1.40 / aq=3:1.00
Encoded date : UTC 2018-03-04 23:34:24
Tagged date : UTC 2018-03-04 23:34:24

Audio
ID : 2
Format : AAC
Format/Info : Advanced Audio Codec
Format profile : LC
Codec ID : mp4a-40-2
Duration : 1 h 16 min
Bit rate mode : Constant
Bit rate : 224 kb/s
Channel(s) : 2 channels
Channel(s)_Original : 6 channels
Channel positions : Front: L C R, Side: L R, LFE
Sampling rate : 48.0 kHz
Frame rate : 46.875 FPS (1024 SPF)
Compression mode : Lossy
Stream size : 122 MiB (13%)
Language : English
Default : Yes
Alternate group : 1
Encoded date : UTC 2018-03-04 23:34:24
Tagged date : UTC 2018-03-04 23:34:24

Subtitulos

Grupo: RARBG
Versión: BDRip H.264 1080p AAC
Tamaño: 1.4 GB
Lady.and.the.Tramp.1955.1080p.BluRay.H264.AAC-RARBG

Video
ID : 1
Format : AVC
Format/Info : Advanced Video Codec
Format profile : [email protected]
Format settings : CABAC / 4 Ref Frames
Format settings, CABAC : Yes
Format settings, ReFrames : 4 frames
Codec ID : avc1
Codec ID/Info : Advanced Video Coding
Duration : 1 h 16 min
Bit rate : 2 500 kb/s
Width : 1 920 pixels
Height : 752 pixels
Display aspect ratio : 2.553
Frame rate mode : Constant
Frame rate : 23.976 (23976/1000) FPS
Color space : YUV
Chroma subsampling : 4:2:0
Bit depth : 8 bits
Scan type : Progressive
Bits/(Pixel*Frame) : 0.072
Stream size : 1.33 GiB (92%)
Writing library : x264 core 152 r2851M ba24899
Encoding settings : cabac=1 / ref=4 / deblock=1:-1:-1 / analyse=0x3:0x113 / me=umh / subme=9 / psy=1 / psy_rd=1.00:0.15 / mixed_ref=1 / me_range=24 / chroma_me=1 / trellis=2 / 8x8dct=1 / cqm=0 / deadzone=21,11 / fast_pskip=1 / chroma_qp_offset=-3 / threads=32 / lookahead_threads=4 / sliced_threads=0 / nr=0 / decimate=1 / interlaced=0 / bluray_compat=0 / constrained_intra=0 / bframes=3 / b_pyramid=2 / b_adapt=2 / b_bias=0 / direct=3 / weightb=1 / open_gop=0 / weightp=2 / keyint=250 / keyint_min=25 / scenecut=40 / intra_refresh=0 / rc_lookahead=50 / rc=2pass / mbtree=1 / bitrate=2500 / ratetol=1.0 / qcomp=0.60 / qpmin=0 / qpmax=69 / qpstep=4 / cplxblur=20.0 / qblur=0.5 / vbv_maxrate=31250 / vbv_bufsize=31250 / nal_hrd=none / filler=0 / ip_ratio=1.40 / aq=3:1.00
Encoded date : UTC 2018-03-05 05:45:35
Tagged date : UTC 2018-03-05 05:45:35

Audio
ID : 2
Format : AAC
Format/Info : Advanced Audio Codec
Format profile : LC
Codec ID : mp4a-40-2
Duration : 1 h 16 min
Bit rate mode : Constant
Bit rate : 224 kb/s
Channel(s) : 2 channels
Channel(s)_Original : 6 channels
Channel positions : Front: L C R, Side: L R, LFE
Sampling rate : 48.0 kHz
Frame rate : 46.875 FPS (1024 SPF)
Compression mode : Lossy
Stream size : 122 MiB (8%)
Language : English
Default : Yes
Alternate group : 1
Encoded date : UTC 2018-03-05 05:45:35
Tagged date : UTC 2018-03-05 05:45:35

Subtitulos

Grupo: AMIABLE
Versión: BDRip x264 720p DTS
Tamaño: 2.2 GB
Lady.and.the.Tramp.1955.720p.BluRay.X264-AMIABLE

Date .....: 24th January 2012
Runtime ..: 01:16:24
Size .....: 2240mb
Video ....: 1280x496 (X264 @ 23.976fps)
Audio ....: DTS 1509kbps
Source ...: Retail Blu-Ray
Lang .....: English
Subs .....: English / French / Spanish
IMDB .....: http://www.imdb.com/title/tt0048280/
Rating ...: 7.4/10   25,949 votes
Screens ..: Opening Week - 1955
Genre ....: Animation | Family | Music | Romance

Subtitulos

Grupo: AMIABLE
Versión: BDRip x264 1080p DTS
Tamaño: 4.4 GB
Lady.and.the.Tramp.1955.1080p.BluRay.X264-AMIABLE

Date .....: 24th January 2012
Runtime ..: 01:16:24
Size .....: 4480mb
Video ....: 1920x752 (X264 @ 23.976fps)
Audio ....: DTS 1509kbps
Source ...: Retail Blu-Ray
Lang .....: English
Subs .....: English / French / Spanish
IMDB .....: http://www.imdb.com/title/tt0048280/
Rating ...: 7.4/10   25,949 votes
Screens ..: Opening Week - 1955
Genre ....: Animation | Family | Music | Romance

Subtitulos

Grupo: NoGRP
Versión: NTSC AC3 AudioLatino
Tamaño: 350 MB
Sin delay:

Lady.and.the.Tramp.1955.720p.BluRay.H264.AAC-RARBG
Lady.and.the.Tramp.1955.1080p.BluRay.H264.AAC-RARBG
Lady.and.the.Tramp.1955.720p.BluRay.X264-AMIABLE
Lady.and.the.Tramp.1955.1080p.BluRay.X264-AMIABLE
Trailer