86
PUNTOS
Calificar
CALIFICA
Calificar
Califica y/o escribe un comentario sobre la película.
Comentarios en el foroFORO

Gisaengchung (2019)

Tanto Gi Taek (Song Kang Ho) como su familia están sin trabajo. Cuando su hijo mayor, Gi Woo (Choi Woo Shik), empieza a dar clases particulares en casa de Park (Lee Sun Gyun), las dos familias, que tienen mucho en común pese a pertenecer a dos mundos totalmente distintos, comienzan una interrelación de resultados imprevisibles.
Director Bong Joon Ho
Actores Kang-ho Song, Sun-kyun Lee, Yeo-jeong Jo, Woo-sik Choi
Duración 132 min
Streaming (Servicio externo)
Grupo: FGT
Versión: BDRip x264 720p DTS
Tamaño: 6.5 GB
Video
ID : 1
Format : AVC
Format/Info : Advanced Video Codec
Format profile : [email protected]
Format settings : CABAC / 4 Ref Frames
Format settings, CABAC : Yes
Format settings, Reference frames : 4 frames
Codec ID : V_MPEG4/ISO/AVC
Duration : 2 h 12 min
Bit rate : 5 500 kb/s
Width : 1 280 pixels
Height : 536 pixels
Display aspect ratio : 2.40:1
Frame rate mode : Constant
Frame rate : 23.976 (24000/1001) FPS
Color space : YUV
Chroma subsampling : 4:2:0
Bit depth : 8 bits
Scan type : Progressive
Bits/(Pixel*Frame) : 0.334
Stream size : 5.07 GiB (78%)
Title : Parasite.2019.KOREAN.720p.BluRay.x264.DTS-FGT
Writing library : x264 core 148 r2795M aaa9aa8
Encoding settings : cabac=1 / ref=4 / deblock=1:-2:-2 / analyse=0x3:0x113 / me=umh / subme=9 / psy=1 / psy_rd=1.00:0.15 / mixed_ref=1 / me_range=16 / chroma_me=1 / trellis=2 / 8x8dct=1 / cqm=0 / deadzone=21,11 / fast_pskip=1 / chroma_qp_offset=-3 / threads=72 / lookahead_threads=3 / sliced_threads=0 / nr=0 / decimate=1 / interlaced=0 / bluray_compat=0 / constrained_intra=0 / bframes=3 / b_pyramid=2 / b_adapt=1 / b_bias=0 / direct=3 / weightb=1 / open_gop=0 / weightp=2 / keyint=250 / keyint_min=25 / scenecut=40 / intra_refresh=0 / rc_lookahead=50 / rc=2pass / mbtree=1 / bitrate=5500 / ratetol=1.0 / qcomp=0.60 / qpmin=0 / qpmax=69 / qpstep=4 / cplxblur=20.0 / qblur=0.5 / vbv_maxrate=31250 / vbv_bufsize=31250 / nal_hrd=none / filler=0 / ip_ratio=1.40 / aq=1:1.00
Language : Korean
Default : Yes
Forced : No

Audio
ID : 2
Format : DTS
Format/Info : Digital Theater Systems
Codec ID : A_DTS
Duration : 2 h 12 min
Bit rate mode : Constant
Bit rate : 1 509 kb/s
Channel(s) : 6 channels
Channel layout : C L R Ls Rs LFE
Sampling rate : 48.0 kHz
Frame rate : 93.750 FPS (512 SPF)
Bit depth : 24 bits
Compression mode : Lossy
Stream size : 1.39 GiB (22%)
Title : Parasite.2019.KOREAN.720p.BluRay.x264.DTS-FGT
Language : Korean
Default : Yes
Forced : No

Text
ID : 3
Format : UTF-8
Codec ID : S_TEXT/UTF8
Codec ID/Info : UTF-8 Plain Text
Duration : 2 h 5 min
Bit rate : 53 b/s
Count of elements : 1647
Stream size : 49.3 KiB (0%)
Language : English
Default : Yes
Forced : No

Menu
00:00:00.000 : en:Chapter 1
00:05:44.802 : en:Chapter 2
00:12:16.610 : en:Chapter 3
00:20:35.484 : en:Chapter 4
00:29:21.926 : en:Chapter 5
00:37:05.348 : en:Chapter 6
00:46:19.943 : en:Chapter 7
00:53:52.979 : en:Chapter 8
01:02:55.646 : en:Chapter 9
01:12:10.242 : en:Chapter 10
01:23:25.834 : en:Chapter 11
01:32:19.659 : en:Chapter 12
01:41:22.284 : en:Chapter 13
01:48:21.912 : en:Chapter 14
01:56:07.502 : en:Chapter 15
02:07:06.744 : en:Chapter 16

Subtitulos

Grupo: FGT
Versión: BDRip x264 1080p DTS
Tamaño: 12.0 GB
Video
ID : 1
Format : AVC
Format/Info : Advanced Video Codec
Format profile : [email protected]
Format settings : CABAC / 4 Ref Frames
Format settings, CABAC : Yes
Format settings, Reference frames : 4 frames
Codec ID : V_MPEG4/ISO/AVC
Duration : 2 h 12 min
Bit rate : 11.5 Mb/s
Width : 1 920 pixels
Height : 804 pixels
Display aspect ratio : 2.40:1
Frame rate mode : Constant
Frame rate : 23.976 (24000/1001) FPS
Color space : YUV
Chroma subsampling : 4:2:0
Bit depth : 8 bits
Scan type : Progressive
Bits/(Pixel*Frame) : 0.311
Stream size : 10.6 GiB (88%)
Title : Parasite.2019.KOREAN.1080p.BluRay.x264.DTS-FGT
Writing library : x264 core 148 r2748 97eaef2
Encoding settings : cabac=1 / ref=4 / deblock=1:-2:-2 / analyse=0x3:0x113 / me=umh / subme=9 / psy=1 / psy_rd=1.00:0.15 / mixed_ref=1 / me_range=16 / chroma_me=1 / trellis=2 / 8x8dct=1 / cqm=0 / deadzone=21,11 / fast_pskip=1 / chroma_qp_offset=-3 / threads=72 / lookahead_threads=3 / sliced_threads=0 / nr=0 / decimate=1 / interlaced=0 / bluray_compat=0 / constrained_intra=0 / bframes=3 / b_pyramid=2 / b_adapt=1 / b_bias=0 / direct=3 / weightb=1 / open_gop=0 / weightp=2 / keyint=250 / keyint_min=25 / scenecut=40 / intra_refresh=0 / rc_lookahead=50 / rc=2pass / mbtree=1 / bitrate=11500 / ratetol=1.0 / qcomp=0.60 / qpmin=0 / qpmax=69 / qpstep=4 / cplxblur=20.0 / qblur=0.5 / vbv_maxrate=31250 / vbv_bufsize=31250 / nal_hrd=none / filler=0 / ip_ratio=1.40 / aq=1:1.00
Language : Korean
Default : Yes
Forced : No

Audio
ID : 2
Format : DTS
Format/Info : Digital Theater Systems
Codec ID : A_DTS
Duration : 2 h 12 min
Bit rate mode : Constant
Bit rate : 1 509 kb/s
Channel(s) : 6 channels
Channel layout : C L R Ls Rs LFE
Sampling rate : 48.0 kHz
Frame rate : 93.750 FPS (512 SPF)
Bit depth : 24 bits
Compression mode : Lossy
Stream size : 1.39 GiB (12%)
Title : Parasite.2019.KOREAN.1080p.BluRay.x264.DTS-FGT
Language : Korean
Default : Yes
Forced : No

Text
ID : 3
Format : UTF-8
Codec ID : S_TEXT/UTF8
Codec ID/Info : UTF-8 Plain Text
Duration : 2 h 5 min
Bit rate : 53 b/s
Count of elements : 1647
Stream size : 49.3 KiB (0%)
Language : English
Default : Yes
Forced : No

Menu
00:00:00.000 : en:Chapter 1
00:05:44.802 : en:Chapter 2
00:12:16.610 : en:Chapter 3
00:20:35.484 : en:Chapter 4
00:29:21.926 : en:Chapter 5
00:37:05.348 : en:Chapter 6
00:46:19.943 : en:Chapter 7
00:53:52.979 : en:Chapter 8
01:02:55.646 : en:Chapter 9
01:12:10.242 : en:Chapter 10
01:23:25.834 : en:Chapter 11
01:32:19.659 : en:Chapter 12
01:41:22.284 : en:Chapter 13
01:48:21.912 : en:Chapter 14
01:56:07.502 : en:Chapter 15
02:07:06.744 : en:Chapter 16

Subtitulos

Grupo: REGRET
Versión: BDRip x264 AAC
Tamaño: 650 MB
Parasite.2019.BDRip.x264-REGRET

Release Date...: Check your prebot
Duration.......: 2h 11mn
Video..........: 720x302 CRF 19 @ 522 Kbps @ 24 fps
Audio..........: Korean Stereo AAC @ 136 Kbps
Subtitles......: English Forced SRT, English, Traditional Chinese VobSubs
Size...........: 632 MiB
IMDB...........: https://www.imdb.com/title/tt6751668/
Info...........: All unemployed, Ki-taek and his family
take peculiar interest in the wealthy and glamorous Parks,
as they ingratiate themselves into their lives
and get entangled in an unexpected incident.

Subtitulos

Grupo: REGRET
Versión: BDRip x264 720p DTS
Tamaño: 6.6 GB
Parasite.2019.720p.BluRay.x264-REGRET

Release Date...: Check your prebot
Duration.......: 2h 11mn
Video..........: 1280x536 2pass @ 5,614 Kbps @ 24 fps
Audio..........: Korean 6ch DTS @ 1,509 Kbps
Subtitles......: English Forced SRT, English, Traditional Chinese VobSubs
Size...........: 6,717 MiB
IMDB...........: https://www.imdb.com/title/tt6751668/
Info...........: All unemployed, Ki-taek and his family
take peculiar interest in the wealthy and glamorous Parks,
as they ingratiate themselves into their lives
and get entangled in an unexpected incident.

Subtitulos

Grupo: REGRET
Versión: BDRip x264 1080p DTS
Tamaño: 9.8 GB
Parasite.2019.1080p.BluRay.x264-REGRET

Release Date...: Check your prebot
Duration.......: 2h 11mn
Video..........: 1920x808 2pass @ 9,173 Kbps @ 24 fps
Audio..........: Korean 6ch DTS @ 1,509 Kbps
Subtitles......: English Forced SRT, English, Traditional Chinese VobSubs
Size...........: 10,069 MiB
IMDB...........: https://www.imdb.com/title/tt6751668/
Info...........: All unemployed, Ki-taek and his family
take peculiar interest in the wealthy and glamorous Parks,
as they ingratiate themselves into their lives
and get entangled in an unexpected incident.

Subtitulos

Trailer