72
PUNTOS
Calificar
CALIFICA
Calificar
Califica y/o escribe un comentario sobre la película.
Comentarios en el foroFORO

The Report (2019)

Cuenta la historia de Daniel Jones (Adam Driver), el principal investigador del estudio que el Senado de los Estados Unidos realizó en el programa de "Interrogación y Detención" de la CIA, y del que posteriormente se daría a conocer su inmoral e inefectiva brutalidad. Una vez descubierta la verdad, Jones haría todo lo posible por dar a conocer ante todo el mundo lo que muchos trataron de mantener en secreto a toda costa.
Director Scott Z. Burns
Actores Adam Driver, Annette Bening, Jon Hamm, Ted Levine
Duración 119 min
Streaming (Servicio externo)
Grupo: NTG
Versión: WebRip x264 720p E-AC3
Tamaño: 2.1 GB
Video
ID : 1
Format : AVC
Format/Info : Advanced Video Codec
Format profile : [email protected]
Format settings : CABAC / 4 Ref Frames
Format settings, CABAC : Yes
Format settings, Reference frames : 4 frames
Codec ID : V_MPEG4/ISO/AVC
Duration : 1 h 59 min
Bit rate mode : Constant
Bit rate : 1 913 kb/s
Nominal bit rate : 6 000 kb/s
Width : 1 248 pixels
Height : 520 pixels
Display aspect ratio : 2.40:1
Frame rate mode : Constant
Frame rate : 23.976 (24000/1001) FPS
Color space : YUV
Chroma subsampling : 4:2:0
Bit depth : 8 bits
Scan type : Progressive
Bits/(Pixel*Frame) : 0.123
Stream size : 1.60 GiB (75%)
Default : Yes
Forced : No
Color range : Limited
Color primaries : BT.709
Transfer characteristics : BT.709
Matrix coefficients : BT.709

Audio
ID : 2
Format : E-AC-3
Format/Info : Enhanced AC-3
Commercial name : Dolby Digital Plus
Codec ID : A_EAC3
Duration : 1 h 59 min
Bit rate mode : Constant
Bit rate : 640 kb/s
Channel(s) : 6 channels
Channel layout : L R C LFE Ls Rs
Sampling rate : 48.0 kHz
Frame rate : 31.250 FPS (1536 SPF)
Compression mode : Lossy
Stream size : 548 MiB (25%)
Language : English
Service kind : Complete Main
Default : Yes
Forced : No

Text #1
ID : 3
Format : UTF-8
Codec ID : S_TEXT/UTF8
Codec ID/Info : UTF-8 Plain Text
Duration : 1 h 58 min
Bit rate : 99 b/s
Count of elements : 2327
Stream size : 86.1 KiB (0%)
Language : English
Default : No
Forced : No

Text #2
ID : 4
Format : UTF-8
Codec ID : S_TEXT/UTF8
Codec ID/Info : UTF-8 Plain Text
Duration : 1 h 58 min
Bit rate : 99 b/s
Count of elements : 2327
Stream size : 86.1 KiB (0%)
Title : SDH
Language : English
Default : No
Forced : No

Menu
00:00:00.000 : en:Studio Logo
00:00:54.000 : en:Acknowledgement
00:01:02.000 : en:Dan is interrogated
00:03:01.000 : en:A timeline of events
00:08:33.000 : en:The new offsite facility
00:10:46.000 : en:Counter-terrorism after September 11th
00:15:09.000 : en:A new tactic for research
00:16:40.000 : en:Learning the best way to find out information
00:22:28.000 : en:Different methods of interrogation
00:27:47.000 : en:A key change in the investigation
00:33:34.000 : en:Redefining torture
00:36:49.000 : en:Gul Rahman
00:41:18.000 : en:Khaled Sheikh Muhammad
00:47:14.000 : en:Seeking justice and protection for the country
00:52:15.000 : en:A stop to the program
00:54:28.000 : en:The CIA continues to lie
00:58:08.000 : en:Muhammad Rahim
01:01:56.000 : en:The completion of the report
01:03:17.000 : en:A new director of the CIA
01:08:25.000 : en:Requests to change the report
01:13:45.000 : en:Caroline Krass\' confirmation hearing
01:19:30.000 : en:The CIA will go to great lengths to silence opposers
01:27:21.000 : en:Cleaning up the CIA\'s mess
01:33:25.000 : en:The redacted document
01:38:43.000 : en:Stall tactics call for extreme measures
01:46:36.000 : en:A release of the report
01:53:51.000 : en:End Credits

Subtitulos

Grupo: NTG
Versión: WebRip x264 1080p E-AC3
Tamaño: 4.7 GB
Video
ID : 1
Format : AVC
Format/Info : Advanced Video Codec
Format profile : [email protected]
Format settings : CABAC / 4 Ref Frames
Format settings, CABAC : Yes
Format settings, Reference frames : 4 frames
Codec ID : V_MPEG4/ISO/AVC
Duration : 1 h 59 min
Bit rate mode : Constant
Bit rate : 4 958 kb/s
Nominal bit rate : 10 000 kb/s
Width : 1 920 pixels
Height : 800 pixels
Display aspect ratio : 2.40:1
Frame rate mode : Constant
Frame rate : 23.976 (24000/1001) FPS
Color space : YUV
Chroma subsampling : 4:2:0
Bit depth : 8 bits
Scan type : Progressive
Bits/(Pixel*Frame) : 0.135
Stream size : 4.14 GiB (89%)
Default : Yes
Forced : No
Color range : Limited
Color primaries : BT.709
Transfer characteristics : BT.709
Matrix coefficients : BT.709

Audio
ID : 2
Format : E-AC-3
Format/Info : Enhanced AC-3
Commercial name : Dolby Digital Plus
Codec ID : A_EAC3
Duration : 1 h 59 min
Bit rate mode : Constant
Bit rate : 640 kb/s
Channel(s) : 6 channels
Channel layout : L R C LFE Ls Rs
Sampling rate : 48.0 kHz
Frame rate : 31.250 FPS (1536 SPF)
Compression mode : Lossy
Stream size : 548 MiB (11%)
Language : English
Service kind : Complete Main
Default : Yes
Forced : No

Text #1
ID : 3
Format : UTF-8
Codec ID : S_TEXT/UTF8
Codec ID/Info : UTF-8 Plain Text
Duration : 1 h 58 min
Bit rate : 99 b/s
Count of elements : 2327
Stream size : 86.1 KiB (0%)
Language : English
Default : No
Forced : No

Text #2
ID : 4
Format : UTF-8
Codec ID : S_TEXT/UTF8
Codec ID/Info : UTF-8 Plain Text
Duration : 1 h 58 min
Bit rate : 99 b/s
Count of elements : 2327
Stream size : 86.1 KiB (0%)
Title : SDH
Language : English
Default : No
Forced : No

Menu
00:00:00.000 : en:Studio Logo
00:00:54.000 : en:Acknowledgement
00:01:02.000 : en:Dan is interrogated
00:03:01.000 : en:A timeline of events
00:08:33.000 : en:The new offsite facility
00:10:46.000 : en:Counter-terrorism after September 11th
00:15:09.000 : en:A new tactic for research
00:16:40.000 : en:Learning the best way to find out information
00:22:28.000 : en:Different methods of interrogation
00:27:47.000 : en:A key change in the investigation
00:33:34.000 : en:Redefining torture
00:36:49.000 : en:Gul Rahman
00:41:18.000 : en:Khaled Sheikh Muhammad
00:47:14.000 : en:Seeking justice and protection for the country
00:52:15.000 : en:A stop to the program
00:54:28.000 : en:The CIA continues to lie
00:58:08.000 : en:Muhammad Rahim
01:01:56.000 : en:The completion of the report
01:03:17.000 : en:A new director of the CIA
01:08:25.000 : en:Requests to change the report
01:13:45.000 : en:Caroline Krass\' confirmation hearing
01:19:30.000 : en:The CIA will go to great lengths to silence opposers
01:27:21.000 : en:Cleaning up the CIA\'s mess
01:33:25.000 : en:The redacted document
01:38:43.000 : en:Stall tactics call for extreme measures
01:46:36.000 : en:A release of the report
01:53:51.000 : en:End Credits

Subtitulos

Grupo: AMRAP
Versión: WEB h264 720p REPACK INTERNAL E-AC3
Tamaño: 1.3 GB
The.Report.2019.REPACK.iNTERNAL.720p.WEB.H264-AMRAP

DATE.......:     2019-12-05
URL........:     https://www.imdb.com/title/tt8236336/
SIZE.......:     1.25 GiB
DUR........:     1 h 59 min
VIDEO......:     852 kb/s
RES........:     1280x528
AUDIO......:     E-AC-3 / 640 kb/s / 6ch
SUBTITLE(s):     English
NOTE.......:     Previous release had the descriptive audio track included, our apologies.

Subtitulos

Grupo: AMRAP
Versión: WEB h264 1080p INTERNAL REPACK E-AC3
Tamaño: 4.7 GB
The.Report.2019.REPACK.iNTERNAL.1080p.WEB.H264-AMRAP

DATE.......:     2019-12-05
URL........:     https://www.imdb.com/title/tt8236336/
SIZE.......:     4.68 GiB
DUR........:     1 h 59 min
VIDEO......:     4 958 kb/s
RES........:     1920x800
AUDIO......:     E-AC-3 / 640 kb/s / 6ch
SUBTITLE(s):     English
NOTE.......:     Previous release had the descriptive audio track included, our apologies.

Subtitulos

Trailer