80
PUNTOS
Calificar
CALIFICA
Calificar
Califica y/o escribe un comentario sobre la película.
Comentarios en el foroFORO

The Lighthouse (2019)

Una remota y misteriosa isla de Nueva Inglaterra en la década de 1890. El veterano farero Thomas Wake (Willem Dafoe) y su joven ayudante Ephraim Winslow (Robert Pattinson) deberán convivir durante cuatro semanas. Su objetivo será mantener el faro en buenas condiciones hasta que llegue el relevo que les permita volver a tierra. Pero las cosas se complican cuando surjan conflictos por jerarquías de poder entre ambos.
Director Robert Eggers
Actores Robert Pattinson, Willem Dafoe, Valeriia Karaman
Duración 109 min
Streaming (Servicio externo)
Grupo: GECKOS
Versión: BDRip x264 AAC
Tamaño: 1.2 GB
The.Lighthouse.2019.BDRip.x264-GECKOS
Date         : 04.01.2020
URL          : https://www.imdb.com/title/tt7984734
Video        : X264 @ crf 19
Resolution   : 720x600
Size         : 1225MB (1284168066 Bytes)
Audio        : AAC LC 2ch 48.0 kHz
Language     : English
Subtitles    : English SDH
Runtime      : 1h 49mn

Subtitulos

Grupo: GECKOS
Versión: BDRip x264 720p DTS
Tamaño: 5.5 GB
The.Lighthouse.2019.720p.BluRay.x264-GECKOS
Date         : 04.01.2020
URL          : https://www.imdb.com/title/tt7984734
X264 bitrate : 5655kbps
Resolution   : 864x720
Size         : 5594MB (5865941437 Bytes)
Audio        : DTS 1509kpps 6ch
Language     : English
Subtitles    : English SDH
Runtime      : 1h 49mn

Subtitulos

Grupo: GECKOS
Versión: BDRip x264 1080p DTS
Tamaño: 8.7 GB
The.Lighthouse.2019.1080p.BluRay.x264-GECKOS
Date         : 04.01.2020
URL          : https://www.imdb.com/title/tt7984734
X264 bitrate : 9959kbps
Resolution   : 1296x1080
Size         : 8954MB (9389155173 Bytes)
Audio        : DTS 1509kpps 6ch
Language     : English
Subtitles    : English SDH
Runtime      : 1h 49mn

Subtitulos

Grupo: FGT
Versión: BDRip x264 720p DTS
Tamaño: 5.3 GB
Video
ID : 1
Format : AVC
Format/Info : Advanced Video Codec
Format profile : [email protected]
Format settings : CABAC / 4 Ref Frames
Format settings, CABAC : Yes
Format settings, Reference frames : 4 frames
Codec ID : V_MPEG4/ISO/AVC
Duration : 1 h 49 min
Bit rate : 5 500 kb/s
Width : 864 pixels
Height : 720 pixels
Display aspect ratio : 1.200
Frame rate mode : Constant
Frame rate : 23.976 (24000/1001) FPS
Color space : YUV
Chroma subsampling : 4:2:0
Bit depth : 8 bits
Scan type : Progressive
Bits/(Pixel*Frame) : 0.369
Stream size : 4.19 GiB (78%)
Title : The.Lighthouse.2019.720p.BluRay.x264.DTS-FGT
Writing library : x264 core 148 r2748 97eaef2
Encoding settings : cabac=1 / ref=4 / deblock=1:-2:-2 / analyse=0x3:0x113 / me=umh / subme=9 / psy=1 / psy_rd=1.00:0.15 / mixed_ref=1 / me_range=16 / chroma_me=1 / trellis=2 / 8x8dct=1 / cqm=0 / deadzone=21,11 / fast_pskip=1 / chroma_qp_offset=-3 / threads=72 / lookahead_threads=3 / sliced_threads=0 / nr=0 / decimate=1 / interlaced=0 / bluray_compat=0 / constrained_intra=0 / bframes=3 / b_pyramid=2 / b_adapt=1 / b_bias=0 / direct=3 / weightb=1 / open_gop=0 / weightp=2 / keyint=250 / keyint_min=25 / scenecut=40 / intra_refresh=0 / rc_lookahead=50 / rc=2pass / mbtree=1 / bitrate=5500 / ratetol=1.0 / qcomp=0.60 / qpmin=0 / qpmax=69 / qpstep=4 / cplxblur=20.0 / qblur=0.5 / vbv_maxrate=31250 / vbv_bufsize=31250 / nal_hrd=none / filler=0 / ip_ratio=1.40 / aq=1:1.00
Language : English
Default : Yes
Forced : No

Audio
ID : 2
Format : DTS
Format/Info : Digital Theater Systems
Codec ID : A_DTS
Duration : 1 h 49 min
Bit rate mode : Constant
Bit rate : 1 509 kb/s
Channel(s) : 6 channels
Channel layout : C L R Ls Rs LFE
Sampling rate : 48.0 kHz
Frame rate : 93.750 FPS (512 SPF)
Bit depth : 24 bits
Compression mode : Lossy
Stream size : 1.15 GiB (22%)
Title : The.Lighthouse.2019.720p.BluRay.x264.DTS-FGT
Language : English
Default : Yes
Forced : No

Text
ID : 3
Format : UTF-8
Codec ID : S_TEXT/UTF8
Codec ID/Info : UTF-8 Plain Text
Duration : 1 h 36 min
Bit rate : 33 b/s
Count of elements : 763
Stream size : 23.6 KiB (0%)
Language : English
Default : Yes
Forced : No

Menu
00:00:00.000 : en:Chapter 1
00:06:49.534 : en:Chapter 2
00:11:47.957 : en:Chapter 3
00:13:44.949 : en:Chapter 4
00:19:52.900 : en:Chapter 5
00:25:33.949 : en:Chapter 6
00:29:54.793 : en:Chapter 7
00:36:23.181 : en:Chapter 8
00:41:28.653 : en:Chapter 9
00:51:00.307 : en:Chapter 10
00:55:48.303 : en:Chapter 11
01:03:43.695 : en:Chapter 12
01:09:40.718 : en:Chapter 13
01:19:01.820 : en:Chapter 14
01:24:46.707 : en:Chapter 15
01:39:42.602 : en:Chapter 16
Grupo: FGT
Versión: BDRip x264 1080p DTS
Tamaño: 9.9 GB
Video
ID : 1
Format : AVC
Format/Info : Advanced Video Codec
Format profile : [email protected]
Format settings : CABAC / 4 Ref Frames
Format settings, CABAC : Yes
Format settings, Reference frames : 4 frames
Codec ID : V_MPEG4/ISO/AVC
Duration : 1 h 49 min
Bit rate : 11.5 Mb/s
Width : 1 296 pixels
Height : 1 080 pixels
Display aspect ratio : 1.200
Frame rate mode : Constant
Frame rate : 23.976 (24000/1001) FPS
Color space : YUV
Chroma subsampling : 4:2:0
Bit depth : 8 bits
Scan type : Progressive
Bits/(Pixel*Frame) : 0.343
Stream size : 8.77 GiB (88%)
Title : The.Lighthouse.2019.1080p.BluRay.x264.DTS-FGT
Writing library : x264 core 148 r2748 97eaef2
Encoding settings : cabac=1 / ref=4 / deblock=1:-2:-2 / analyse=0x3:0x113 / me=umh / subme=9 / psy=1 / psy_rd=1.00:0.15 / mixed_ref=1 / me_range=16 / chroma_me=1 / trellis=2 / 8x8dct=1 / cqm=0 / deadzone=21,11 / fast_pskip=1 / chroma_qp_offset=-3 / threads=72 / lookahead_threads=3 / sliced_threads=0 / nr=0 / decimate=1 / interlaced=0 / bluray_compat=0 / constrained_intra=0 / bframes=3 / b_pyramid=2 / b_adapt=1 / b_bias=0 / direct=3 / weightb=1 / open_gop=0 / weightp=2 / keyint=250 / keyint_min=25 / scenecut=40 / intra_refresh=0 / rc_lookahead=50 / rc=2pass / mbtree=1 / bitrate=11500 / ratetol=1.0 / qcomp=0.60 / qpmin=0 / qpmax=69 / qpstep=4 / cplxblur=20.0 / qblur=0.5 / vbv_maxrate=31250 / vbv_bufsize=31250 / nal_hrd=none / filler=0 / ip_ratio=1.40 / aq=1:1.00
Language : English
Default : Yes
Forced : No

Audio
ID : 2
Format : DTS
Format/Info : Digital Theater Systems
Codec ID : A_DTS
Duration : 1 h 49 min
Bit rate mode : Constant
Bit rate : 1 509 kb/s
Channel(s) : 6 channels
Channel layout : C L R Ls Rs LFE
Sampling rate : 48.0 kHz
Frame rate : 93.750 FPS (512 SPF)
Bit depth : 24 bits
Compression mode : Lossy
Stream size : 1.15 GiB (12%)
Title : The.Lighthouse.2019.1080p.BluRay.x264.DTS-FGT
Language : English
Default : Yes
Forced : No

Text
ID : 3
Format : UTF-8
Codec ID : S_TEXT/UTF8
Codec ID/Info : UTF-8 Plain Text
Duration : 1 h 36 min
Bit rate : 33 b/s
Count of elements : 763
Stream size : 23.6 KiB (0%)
Language : English
Default : Yes
Forced : No

Menu
00:00:00.000 : en:Chapter 1
00:06:49.534 : en:Chapter 2
00:11:47.957 : en:Chapter 3
00:13:44.949 : en:Chapter 4
00:19:52.900 : en:Chapter 5
00:25:33.949 : en:Chapter 6
00:29:54.793 : en:Chapter 7
00:36:23.181 : en:Chapter 8
00:41:28.653 : en:Chapter 9
00:51:00.307 : en:Chapter 10
00:55:48.303 : en:Chapter 11
01:03:43.695 : en:Chapter 12
01:09:40.718 : en:Chapter 13
01:19:01.820 : en:Chapter 14
01:24:46.707 : en:Chapter 15
01:39:42.602 : en:Chapter 16
Trailer