61
PUNTOS
Calificar
CALIFICA
Calificar
Califica y/o escribe un comentario sobre la película.
Comentarios en el foroFORO

The Death and Life of John F. Donovan (2019)

La noticia de que un conocido actor norteamericano mantiene una correspondencia secreta con un niño británico de once años, provoca tal oleada de especulaciones y acusaciones que su carrera empezará a tambalearse.
Director Xavier Dolan
Actores Kit Harington, Natalie Portman, Jacob Tremblay, Susan Sarandon
Duración 123 min
Streaming (Servicio externo)
Grupo: FGT
Versión: BDRip x264 720p DTS
Tamaño: 6.1 GB
General
Unique ID : 97450044803705976176206929728193143294 (0x49503228EC41803D4D6A11BCBE2BA1FE)
Complete name : The.Death.And.Life.of.John.F.Donovan.2018.720p.BluRay.x264.DTS-FGT.mkv
Format : Matroska
Format version : Version 4 / Version 2
File size : 6.08 GiB
Duration : 2h 4mn
Overall bit rate : 7 006 Kbps
Movie name : The.Death.And.Life.of.John.F.Donovan.2018.720p.BluRay.x264.DTS-FGT
Encoded date : UTC 2019-10-11 22:39:32
Writing application : mkvmerge v38.0.0 ('The Silent Type') 64-bit
Writing library : libebml v1.3.9 + libmatroska v1.5.2
Cover : Yes
Attachments : cover_land.jpg / small_cover.jpg / small_cover_land.jpg / cover.jpg

Video
ID : 1
Format : AVC
Format/Info : Advanced Video Codec
Format profile : [email protected]
Format settings, CABAC : Yes
Format settings, ReFrames : 4 frames
Codec ID : V_MPEG4/ISO/AVC
Duration : 2h 4mn
Bit rate : 5 500 Kbps
Width : 1 280 pixels
Height : 536 pixels
Display aspect ratio : 2.40:1
Frame rate mode : Constant
Frame rate : 24.000 fps
Color space : YUV
Chroma subsampling : 4:2:0
Bit depth : 8 bits
Scan type : Progressive
Bits/(Pixel*Frame) : 0.334
Stream size : 4.77 GiB (78%)
Title : The.Death.And.Life.of.John.F.Donovan.2018.720p.BluRay.x264.DTS-FGT
Writing library : x264 core 148 r2795M aaa9aa8
Encoding settings : cabac=1 / ref=4 / deblock=1:-2:-2 / analyse=0x3:0x113 / me=umh / subme=9 / psy=1 / psy_rd=1.00:0.15 / mixed_ref=1 / me_range=16 / chroma_me=1 / trellis=2 / 8x8dct=1 / cqm=0 / deadzone=21,11 / fast_pskip=1 / chroma_qp_offset=-3 / threads=72 / lookahead_threads=3 / sliced_threads=0 / nr=0 / decimate=1 / interlaced=0 / bluray_compat=0 / constrained_intra=0 / bframes=3 / b_pyramid=2 / b_adapt=1 / b_bias=0 / direct=3 / weightb=1 / open_gop=0 / weightp=2 / keyint=250 / keyint_min=25 / scenecut=40 / intra_refresh=0 / rc_lookahead=50 / rc=2pass / mbtree=1 / bitrate=5500 / ratetol=1.0 / qcomp=0.60 / qpmin=0 / qpmax=69 / qpstep=4 / cplxblur=20.0 / qblur=0.5 / vbv_maxrate=31250 / vbv_bufsize=31250 / nal_hrd=none / filler=0 / ip_ratio=1.40 / aq=1:1.00
Language : English
Default : Yes
Forced : No

Audio
ID : 2
Format : DTS
Format/Info : Digital Theater Systems
Mode : 16
Format settings, Endianness : Big
Codec ID : A_DTS
Duration : 2h 4mn
Bit rate mode : Constant
Bit rate : 1 509 Kbps
Channel(s) : 6 channels
Channel positions : Front: L C R, Side: L R, LFE
Sampling rate : 48.0 KHz
Frame rate : 93.750 fps (512 spf)
Bit depth : 16 bits
Compression mode : Lossy
Stream size : 1.31 GiB (22%)
Title : The.Death.And.Life.of.John.F.Donovan.2018.720p.BluRay.x264.DTS-FGT
Language : English
Default : Yes
Forced : No

Menu
00:00:00.000 : en:Chapter 01
00:09:15.250 : en:Chapter 02
00:19:18.167 : en:Chapter 03
00:30:29.583 : en:Chapter 04
00:42:25.667 : en:Chapter 05
00:50:02.000 : en:Chapter 06
01:01:55.917 : en:Chapter 07
01:13:36.542 : en:Chapter 08
01:20:59.125 : en:Chapter 09
01:32:15.417 : en:Chapter 10
01:42:40.125 : en:Chapter 11
01:54:20.625 : en:Chapter 12

Subtitulos

Grupo: FGT
Versión: BDRip x264 1080p DTS
Tamaño: 11.3 GB
General
Unique ID : 256157062669918281139431097583843813264 (0xC0B60E45627F4D741F5601DC4B762790)
Complete name : The.Death.And.Life.of.John.F.Donovan.2018.1080p.BluRay.x264.DTS-FGT.mkv
Format : Matroska
Format version : Version 4 / Version 2
File size : 11.3 GiB
Duration : 2h 4mn
Overall bit rate : 13.0 Mbps
Movie name : The.Death.And.Life.of.John.F.Donovan.2018.1080p.BluRay.x264.DTS-FGT
Encoded date : UTC 2019-10-12 00:19:24
Writing application : mkvmerge v38.0.0 ('The Silent Type') 64-bit
Writing library : libebml v1.3.9 + libmatroska v1.5.2
Cover : Yes
Attachments : cover_land.jpg / small_cover.jpg / small_cover_land.jpg / cover.jpg

Video
ID : 1
Format : AVC
Format/Info : Advanced Video Codec
Format profile : [email protected]
Format settings, CABAC : Yes
Format settings, ReFrames : 4 frames
Codec ID : V_MPEG4/ISO/AVC
Duration : 2h 4mn
Bit rate : 11.5 Mbps
Width : 1 920 pixels
Height : 804 pixels
Display aspect ratio : 2.40:1
Frame rate mode : Constant
Frame rate : 24.000 fps
Color space : YUV
Chroma subsampling : 4:2:0
Bit depth : 8 bits
Scan type : Progressive
Bits/(Pixel*Frame) : 0.310
Stream size : 9.97 GiB (88%)
Title : The.Death.And.Life.of.John.F.Donovan.2018.1080p.BluRay.x264.DTS-FGT
Writing library : x264 core 148 r2748 97eaef2
Encoding settings : cabac=1 / ref=4 / deblock=1:-2:-2 / analyse=0x3:0x113 / me=umh / subme=9 / psy=1 / psy_rd=1.00:0.15 / mixed_ref=1 / me_range=16 / chroma_me=1 / trellis=2 / 8x8dct=1 / cqm=0 / deadzone=21,11 / fast_pskip=1 / chroma_qp_offset=-3 / threads=72 / lookahead_threads=3 / sliced_threads=0 / nr=0 / decimate=1 / interlaced=0 / bluray_compat=0 / constrained_intra=0 / bframes=3 / b_pyramid=2 / b_adapt=1 / b_bias=0 / direct=3 / weightb=1 / open_gop=0 / weightp=2 / keyint=250 / keyint_min=25 / scenecut=40 / intra_refresh=0 / rc_lookahead=50 / rc=2pass / mbtree=1 / bitrate=11500 / ratetol=1.0 / qcomp=0.60 / qpmin=0 / qpmax=69 / qpstep=4 / cplxblur=20.0 / qblur=0.5 / vbv_maxrate=31250 / vbv_bufsize=31250 / nal_hrd=none / filler=0 / ip_ratio=1.40 / aq=1:1.00
Language : English
Default : Yes
Forced : No

Audio
ID : 2
Format : DTS
Format/Info : Digital Theater Systems
Mode : 16
Format settings, Endianness : Big
Codec ID : A_DTS
Duration : 2h 4mn
Bit rate mode : Constant
Bit rate : 1 509 Kbps
Channel(s) : 6 channels
Channel positions : Front: L C R, Side: L R, LFE
Sampling rate : 48.0 KHz
Frame rate : 93.750 fps (512 spf)
Bit depth : 16 bits
Compression mode : Lossy
Stream size : 1.31 GiB (12%)
Title : The.Death.And.Life.of.John.F.Donovan.2018.1080p.BluRay.x264.DTS-FGT
Language : English
Default : Yes
Forced : No

Menu
00:00:00.000 : en:Chapter 01
00:09:15.250 : en:Chapter 02
00:19:18.167 : en:Chapter 03
00:30:29.583 : en:Chapter 04
00:42:25.667 : en:Chapter 05
00:50:02.000 : en:Chapter 06
01:01:55.917 : en:Chapter 07
01:13:36.542 : en:Chapter 08
01:20:59.125 : en:Chapter 09
01:32:15.417 : en:Chapter 10
01:42:40.125 : en:Chapter 11
01:54:20.625 : en:Chapter 12

Subtitulos

Trailer