68
PUNTOS
Calificar
CALIFICA
Calificar
Califica y/o escribe un comentario sobre la película.
Comentarios en el foroFORO

L'amant d'un jour (2017)

Después de una ruptura, una chica de 23 años regresa a casa de su padre. Allí descubre que éste tiene una relación con una joven de su misma edad.
Director Philippe Garrel
Actores Éric Caravaca, Esther Garrel, Louise Chevillotte, Paul Toucang
Duración 76 min
Streaming (Servicio externo)
Grupo: NoGRP
Versión: WEB-DL x264 1080p AC3
Tamaño: 2.7 GB
General
Unique ID                                : 289485231340744953410477026615600749370 (0xD9C8D3DA4C1455E3106BDB6393121B3A)
Complete name                            : L.Amant.D.Un.Jour.2016.1080p.WEB-DL.mkv
Format                                   : Matroska
Format version                           : Version 4
File size                                : 2.64 GiB
Duration                                 : 1 h 15 min
Overall bit rate                         : 4 987 kb/s
Encoded date                             : UTC 2017-10-03 17:11:59
Writing application                      : mkvmerge v16.0.0 ('Protest') 64-bit
Writing library                          : libebml v1.3.5 + libmatroska v1.4.8

Video
ID                                       : 1
Format                                   : AVC
Format/Info                              : Advanced Video Codec
Format profile                           : [email protected]
Format settings                          : CABAC / 5 Ref Frames
Format settings, CABAC                   : Yes
Format settings, ReFrames                : 5 frames
Codec ID                                 : V_MPEG4/ISO/AVC
Duration                                 : 1 h 15 min
Bit rate                                 : 4 601 kb/s
Width                                    : 1 920 pixels
Height                                   : 800 pixels
Display aspect ratio                     : 2.40:1
Frame rate mode                          : Constant
Frame rate                               : 24.000 FPS
Color space                              : YUV
Chroma subsampling                       : 4:2:0
Bit depth                                : 8 bits
Scan type                                : Progressive
Bits/(Pixel*Frame)                       : 0.125
Stream size                              : 2.43 GiB (92%)
Language                                 : English
Default                                  : Yes
Forced                                   : No
Color range                              : Limited
Color primaries                          : BT.709
Transfer characteristics                 : BT.709
Matrix coefficients                      : BT.709

Audio
ID                                       : 2
Format                                   : AC-3
Format/Info                              : Audio Coding 3
Commercial name                          : Dolby Digital
Codec ID                                 : A_AC3
Duration                                 : 1 h 15 min
Bit rate mode                            : Constant
Bit rate                                 : 384 kb/s
Channel(s)                               : 6 channels
Channel layout                           : L R C LFE Ls Rs
Sampling rate                            : 48.0 kHz
Frame rate                               : 31.250 FPS (1536 SPF)
Bit depth                                : 16 bits
Compression mode                         : Lossy
Delay relative to video                  : -42 ms
Stream size                              : 208 MiB (8%)
Language                                 : French
Service kind                             : Complete Main
Default                                  : Yes
Forced                                   : No

Menu
00:00:00.000                             : en:Chapitre 1
00:07:35.750                             : en:Chapitre 2
00:14:55.583                             : en:Chapitre 3
00:22:28.124                             : en:Chapitre 4
00:30:09.790                             : en:Chapitre 5
00:37:13.915                             : en:Chapitre 6
00:45:32.206                             : en:Chapitre 7
00:52:51.372                             : en:Chapitre 8
01:00:02.580                             : en:Chapitre 9
01:07:13.413                             : en:Chapitre 10

Subtitulos

Trailer