63
PUNTOS
Calificar
CALIFICA
Calificar
Califica y/o escribe un comentario sobre la película.
Comentarios en el foroFORO

Duelles (2019)

Alice y Céline son dos amigas que tienen una relación especial. Viven con sus familias en los suburbios bruselenses de los 60, en dos idénticas casas adosadas de clase media. Han transmitido su vínculo a sus hijos de ocho años, Théo y Maxime, que han crecido juntos y son como hermanos. Sus maridos también comparten una complicidad similar, y las dos familias prácticamente viven como si fueran una sola. Pero un día, llega la tragedia cuando Maxime muere en un accidente que Alice presencia pero no puede evitar. Céline acusa a Alice de no ser capaz de salvar a su hijo, y su actitud cambia por completo. Su relación, antes tan perfecta, comienza a desmoronarse, y Alice tiene miedo de que su amiga trate de vengarse.
Director Olivier Masset-Depasse
Actores Veerle Baetens, Anne Coesens, Mehdi Nebbou, Arieh Worthalter
Duración 97 min
Streaming (Servicio externo)
Grupo: EXTREME
Versión: WEB H264 720p AC3
Tamaño: 3.1 GB
Duelles.2018.FRENCH.720p.WEB.H264-EXTREME.mkv
Format                                   : Matroska
Format version                           : Version 4
File size                                : 2.87 GiB
Duration                                 : 1 h 33 min
Overall bit rate                         : 4 416 kb/s
Encoded date                             : UTC 2019-09-25 09:37:02
Writing application                      : mkvmerge v37.0.0 ('Leave It') 64-bit
Writing library                          : libebml v1.3.9 + libmatroska v1.5.2

Video
ID                                       : 2
Format                                   : AVC
Format/Info                              : Advanced Video Codec
Format profile                           : [email protected]
Format settings                          : 2 Ref Frames
Format settings, CABAC                   : No
Format settings, ReFrames                : 2 frames
Codec ID                                 : V_MPEG4/ISO/AVC
Duration                                 : 1 h 33 min
Bit rate                                 : 4 030 kb/s
Width                                    : 960 pixels
Height                                   : 540 pixels
Display aspect ratio                     : 2.40:1
Frame rate mode                          : Constant
Frame rate                               : 25.000 FPS
Color space                              : YUV
Chroma subsampling                       : 4:2:0
Bit depth                                : 8 bits
Scan type                                : Progressive
Bits/(Pixel*Frame)                       : 0.311
Stream size                              : 2.62 GiB (91%)
Language                                 : English
Default                                  : Yes
Forced                                   : No
Color range                              : Limited
Color primaries                          : BT.709
Transfer characteristics                 : BT.709
Matrix coefficients                      : BT.709

Audio
ID                                       : 1
Format                                   : AC-3
Format/Info                              : Audio Coding 3
Commercial name                          : Dolby Digital
Codec ID                                 : A_AC3
Duration                                 : 1 h 33 min
Bit rate mode                            : Constant
Bit rate                                 : 384 kb/s
Channel(s)                               : 6 channels
Channel layout                           : L R C LFE Ls Rs
Sampling rate                            : 48.0 kHz
Frame rate                               : 31.250 FPS (1536 SPF)
Bit depth                                : 16 bits
Compression mode                         : Lossy
Delay relative to video                  : -40 ms
Stream size                              : 256 MiB (9%)
Language                                 : French
Service kind                             : Complete Main
Default                                  : Yes
Forced                                   : No

Menu
00:00:00.000                             : en:1
00:14:49.440                             : en:2
00:30:10.640                             : en:3
00:44:31.959                             : en:4
00:59:58.359                             : en:5
01:14:14.158                             : en:6
01:28:13.397                             : en:7

Subtitulos

Grupo: EXTREME
Versión: WEB H264 1080p AC3
Tamaño: 3.4 GB
Duelles.2018.FRENCH.1080p.WEB.H264-EXTREME.mkv
Format                                   : Matroska
Format version                           : Version 4
File size                                : 3.12 GiB
Duration                                 : 1 h 33 min
Overall bit rate                         : 4 798 kb/s
Encoded date                             : UTC 2019-09-25 09:43:11
Writing application                      : mkvmerge v37.0.0 ('Leave It') 64-bit
Writing library                          : libebml v1.3.9 + libmatroska v1.5.2

Video
ID                                       : 2
Format                                   : AVC
Format/Info                              : Advanced Video Codec
Format profile                           : [email protected]
Format settings                          : CABAC / 5 Ref Frames
Format settings, CABAC                   : Yes
Format settings, ReFrames                : 5 frames
Codec ID                                 : V_MPEG4/ISO/AVC
Duration                                 : 1 h 33 min
Bit rate                                 : 4 412 kb/s
Width                                    : 1 916 pixels
Height                                   : 808 pixels
Display aspect ratio                     : 2.40:1
Frame rate mode                          : Constant
Frame rate                               : 25.000 FPS
Color space                              : YUV
Chroma subsampling                       : 4:2:0
Bit depth                                : 8 bits
Scan type                                : Progressive
Bits/(Pixel*Frame)                       : 0.114
Stream size                              : 2.87 GiB (92%)
Language                                 : English
Default                                  : Yes
Forced                                   : No
Color range                              : Limited
Color primaries                          : BT.709
Transfer characteristics                 : BT.709
Matrix coefficients                      : BT.709

Audio
ID                                       : 1
Format                                   : AC-3
Format/Info                              : Audio Coding 3
Commercial name                          : Dolby Digital
Codec ID                                 : A_AC3
Duration                                 : 1 h 33 min
Bit rate mode                            : Constant
Bit rate                                 : 384 kb/s
Channel(s)                               : 6 channels
Channel layout                           : L R C LFE Ls Rs
Sampling rate                            : 48.0 kHz
Frame rate                               : 31.250 FPS (1536 SPF)
Bit depth                                : 16 bits
Compression mode                         : Lossy
Delay relative to video                  : -40 ms
Stream size                              : 256 MiB (8%)
Language                                 : French
Service kind                             : Complete Main
Default                                  : Yes
Forced                                   : No

Menu
00:00:00.000                             : en:1
00:14:49.440                             : en:2
00:30:10.640                             : en:3
00:44:31.959                             : en:4
00:59:58.359                             : en:5
01:14:14.158                             : en:6
01:28:13.397                             : en:7

Subtitulos

Trailer