64
PUNTOS
Calificar
CALIFICA
Calificar
Califica y/o escribe un comentario sobre la película.
Comentarios en el foroFORO

Alice et le maire (2019)

El alcalde de la ciudad de Lyon (Francia), Paul Théraneau, se encuentra en una posición delicada. Tras pasar 30 años en política se empieza a a quedar sin ideas y siente que sufre una especie de vacío existencial. Para superar esta adversidad, Paul decide contratar a una brillante filósofa, la joven Alice Heinmann. Entre ambos se desarrolla un diálogo en el que sus respectivas personalidades cambian drásticamente su forma de ver y entender el mundo.
Director Nicolas Pariser
Actores Fabrice Luchini, Anaïs Demoustier, Nora Hamzawi, Léonie Simaga
Duración 103 min
Streaming (Servicio externo)
Grupo: EXTREME
Versión: BDRip x264 1080p
Tamaño: 7.7 GB
General
Unique ID : 110745078626356310064319098381798266634 (0x5350B9EF9556A00EC3131A8BC23CD70A)
Complete name : Alice.et.le.Maire.2019.FRENCH.1080p.BluRay.DTS.x264-EXTREME.mkv
Format : Matroska
Format version : Version 4
File size : 7.66 GiB
Duration : 1 h 44 min
Overall bit rate : 10.5 Mb/s
Encoded date : UTC 2020-02-08 09:44:16
Writing application : mkvmerge v41.0.0 ('Smarra') 64-bit
Writing library : libebml v1.3.9 + libmatroska v1.5.2

Video
ID : 3
Format : AVC
Format/Info : Advanced Video Codec
Format profile : [email protected]
Format settings : CABAC / 4 Ref Frames
Format settings, CABAC : Yes
Format settings, Reference frames : 4 frames
Codec ID : V_MPEG4/ISO/AVC
Duration : 1 h 44 min
Bit rate : 8 948 kb/s
Width : 1 920 pixels
Height : 1 032 pixels
Display aspect ratio : 1.85:1
Frame rate mode : Constant
Frame rate : 24.000 FPS
Color space : YUV
Chroma subsampling : 4:2:0
Bit depth : 8 bits
Scan type : Progressive
Bits/(Pixel*Frame) : 0.188
Stream size : 6.54 GiB (85%)
Writing library : x264 core 157 r2935 545de2f
Encoding settings : cabac=1 / ref=3 / deblock=1:0:0 / analyse=0x3:0x113 / me=hex / subme=7 / psy=1 / psy_rd=1.00:0.00 / mixed_ref=1 / me_range=16 / chroma_me=1 / trellis=1 / 8x8dct=1 / cqm=0 / deadzone=21,11 / fast_pskip=1 / chroma_qp_offset=-2 / threads=32 / lookahead_threads=5 / sliced_threads=0 / nr=0 / decimate=1 / interlaced=0 / bluray_compat=0 / constrained_intra=0 / bframes=3 / b_pyramid=2 / b_adapt=1 / b_bias=0 / direct=1 / weightb=1 / open_gop=0 / weightp=2 / keyint=240 / keyint_min=24 / scenecut=40 / intra_refresh=0 / rc_lookahead=40 / rc=2pass / mbtree=1 / bitrate=8948 / ratetol=1.0 / qcomp=0.60 / qpmin=0 / qpmax=69 / qpstep=4 / cplxblur=20.0 / qblur=0.5 / vbv_maxrate=62500 / vbv_bufsize=78125 / nal_hrd=none / filler=0 / ip_ratio=1.40 / aq=1:1.00
Default : Yes
Forced : No

Audio
ID : 2
Format : DTS
Format/Info : Digital Theater Systems
Codec ID : A_DTS
Duration : 1 h 44 min
Bit rate mode : Constant
Bit rate : 1 509 kb/s
Channel(s) : 6 channels
Channel layout : C L R Ls Rs LFE
Sampling rate : 48.0 kHz
Frame rate : 93.750 FPS (512 SPF)
Bit depth : 24 bits
Compression mode : Lossy
Stream size : 1.10 GiB (14%)
Language : French
Default : Yes
Forced : No

Text
ID : 1
Format : PGS
Muxing mode : zlib
Codec ID : S_HDMV/PGS
Codec ID/Info : Picture based subtitle format used on BDs/HD-DVDs
Duration : 1 h 44 min
Bit rate : 41.9 kb/s
Count of elements : 3058
Stream size : 31.2 MiB (0%)
Title : SDH
Language : French
Default : No
Forced : No

Menu
00:00:00.000 : fr:Chapitre 01
00:05:47.625 : fr:Chapitre 02
00:14:51.042 : fr:Chapitre 03
00:23:11.833 : fr:Chapitre 04
00:35:13.083 : fr:Chapitre 05
00:42:00.625 : fr:Chapitre 06
00:48:46.250 : fr:Chapitre 07
00:56:25.250 : fr:Chapitre 08
01:07:50.750 : fr:Chapitre 09
01:13:10.875 : fr:Chapitre 10
01:21:30.250 : fr:Chapitre 11
01:37:39.583 : fr:Chapitre 12

Subtitulos

Trailer