72
PUNTOS
Calificar
CALIFICA
Calificar
Califica y/o escribe un comentario sobre la película.
Comentarios en el foroFORO

Giant Little Ones (2019)

Dos chicos populares, muy amigos desde la infancia, ven cómo sus vidas se complican después de un suceso inesperado la noche de una fiesta de cumpleaños.
Director Keith Behrman
Actores Josh Wiggins, Darren Mann, Taylor Hickson, Maria Bello
Duración 93 min
Streaming (Servicio externo)
Grupo: KAIZEN
Versión: WEB-DL H.264 1080p
Tamaño: 5.3 GB
Video
ID : 1
Format : AVC
Format/Info : Advanced Video Codec
Format profile : [email protected]
Format settings : CABAC / 4 Ref Frames
Format settings, CABAC : Yes
Format settings, Reference frames : 4 frames
Codec ID : V_MPEG4/ISO/AVC
Duration : 1 h 33 min
Bit rate mode : Constant
Bit rate : 7 529 kb/s
Nominal bit rate : 10 000 kb/s
Width : 1 920 pixels
Height : 1 080 pixels
Display aspect ratio : 16:9
Frame rate mode : Constant
Frame rate : 23.976 (24000/1001) FPS
Color space : YUV
Chroma subsampling : 4:2:0
Bit depth : 8 bits
Scan type : Progressive
Bits/(Pixel*Frame) : 0.151
Stream size : 4.90 GiB (92%)
Default : Yes
Forced : No
Color range : Limited
Color primaries : BT.709
Transfer characteristics : BT.709
Matrix coefficients : BT.709

Audio
ID : 2
Format : E-AC-3
Format/Info : Enhanced AC-3
Commercial name : Dolby Digital Plus
Codec ID : A_EAC3
Duration : 1 h 33 min
Bit rate mode : Constant
Bit rate : 640 kb/s
Channel(s) : 6 channels
Channel layout : L R C LFE Ls Rs
Sampling rate : 48.0 kHz
Frame rate : 31.250 FPS (1536 SPF)
Compression mode : Lossy
Stream size : 427 MiB (8%)
Language : English
Service kind : Complete Main
Default : Yes
Forced : No

Text
ID : 3
Format : UTF-8
Codec ID : S_TEXT/UTF8
Codec ID/Info : UTF-8 Plain Text
Duration : 1 h 24 min
Bit rate : 47 b/s
Count of elements : 1264
Stream size : 29.5 KiB (0%)
Title : English [CC](SDH)
Language : English
Default : Yes
Forced : No

Subtitulos

Grupo: LPD
Versión: DVDRip x264
Tamaño: 499 MB
Giant.Little.Ones.2018.DVDRip.x264-LPD

Title         [ Giant Little Ones
Release.Date  [ 08/11/2019
Source        [ DVD RETAIL
Release.Size  [ 35x15MB
Runtime       [ 1h 33mn
Video.Format  [ X264
Frame.Rate    [ 23.976 FPS
Aspect.Ratio  [ 720 x 300
Bitrate       [ 587 kb/s
Subs          [ English

IMDB.Link    [ https://www.imdb.com/title/tt4481066
IMDB.Rating  [ 7.2/10 (2,127 votes)

Subtitulos

Trailer