59
PUNTOS
Calificar
CALIFICA
Calificar
Califica y/o escribe un comentario sobre la película.
Comentarios en el foroFORO

Pink Wall (2019)

Seis escenas. Seis años. Seis momentos que definieron la relación entre Jenna y Leon.
Director Tom Cullen
Actores Tatiana Maslany, Jay Duplass, Sarah Ovens, Tom Cullen
Duración 82 min
Streaming (Servicio externo)
Grupo: RedBlade
Versión: DVDRip x264
Tamaño: 428 MB
Pink.Wall.2019.DVDRip.x264-RedBlade

Video: x264 @ 732 kbps 720x406
Audio: AAC @ 128 kbps
Language: English
Subtitles: None

https://www.imdb.com/title/tt7759300/
Grupo: FGT
Versión: WEB-DL H264 1080p
Tamaño: 3.1 GB
Video
ID : 1
Format : AVC
Format/Info : Advanced Video Codec
Format profile : [email protected]
Format settings : CABAC / 4 Ref Frames
Format settings, CABAC : Yes
Format settings, Reference frames : 4 frames
Codec ID : V_MPEG4/ISO/AVC
Duration : 1 h 21 min
Bit rate : 5 083 kb/s
Width : 1 920 pixels
Height : 1 080 pixels
Display aspect ratio : 16:9
Frame rate mode : Constant
Frame rate : 23.976 (24000/1001) FPS
Color space : YUV
Chroma subsampling : 4:2:0
Bit depth : 8 bits
Scan type : Progressive
Bits/(Pixel*Frame) : 0.102
Stream size : 2.90 GiB (93%)
Title : Pink.Wall.2019.1080p.WEB-DL.DD5.1.H264-FGT
Language : English
Default : Yes
Forced : No
Color range : Limited
Color primaries : BT.709
Transfer characteristics : BT.709
Matrix coefficients : BT.709

Audio
ID : 2
Format : AC-3
Format/Info : Audio Coding 3
Commercial name : Dolby Digital
Codec ID : A_AC3
Duration : 1 h 21 min
Bit rate mode : Constant
Bit rate : 384 kb/s
Channel(s) : 6 channels
Channel layout : L R C LFE Ls Rs
Sampling rate : 48.0 kHz
Frame rate : 31.250 FPS (1536 SPF)
Compression mode : Lossy
Delay relative to video : -42 ms
Stream size : 224 MiB (7%)
Title : Pink.Wall.2019.1080p.WEB-DL.DD5.1.H264-FGT
Language : English
Service kind : Complete Main
Default : Yes
Forced : No

Text
ID : 3
Format : UTF-8
Codec ID : S_TEXT/UTF8
Codec ID/Info : UTF-8 Plain Text
Duration : 1 h 17 min
Bit rate : 108 b/s
Count of elements : 1506
Stream size : 61.4 KiB (0%)
Language : English
Default : Yes
Forced : No

Menu
00:00:00.000 : en:1
00:14:42.000 : en:2
00:32:53.000 : en:3
00:41:31.000 : en:4
01:01:59.000 : en:5
Trailer