65
PUNTOS
Calificar
CALIFICA
Calificar
Califica y/o escribe un comentario sobre la película.
Comentarios en el foroFORO

Dao khanong (2016)

Las vidas de un director de cine y su musa (que durante la década de los 70 fue una estudiante activista), una camarera que cambia constantemente de empleo, un actor y una actriz están sutilmente conectadas por hilos casi invisibles. El relato muda de piel varias veces para revelar, capa a capa, las complejidades que integran las vidas de estos personajes.
Director Anocha Suwichakornpong
Actores Visra Vichit-Vadakan, Arak Amornsupasiri, Achtara Suwan, Inthira Charoenpura
Duración 105 min
Streaming (Servicio externo)
Grupo: AoC
Versión: DVDRip x264
Tamaño: 1.9 GB
General
Unique ID : 41264723531518239936725640575522739717 (0x1F0B4BF28A5097D5FBA22A74DDA49605)
Complete name : Dao.khanong.AKA.By.the.Time.It.Gets.Dark.2016.DVDRip.x264-AoC.mkv
Format : Matroska
Format version : Version 2
File size : 1.95 GiB
Duration : 1 h 45 min
Overall bit rate : 2 631 kb/s
Encoded date : UTC 2017-12-20T21:04:28Z
Writing application : HandBrake 0.10.5 2016021100
Writing library : Lavf55.12.0

Video
ID : 1
Format : AVC
Format/Info : Advanced Video Codec
Format profile : [email protected]1
Format settings : CABAC / 9 Ref Frames
Format settings, CABAC : Yes
Format settings, RefFrames : 9 frames
Codec ID : V_MPEG4/ISO/AVC
Duration : 1 h 45 min
Bit rate : 2 130 kb/s
Width : 720 pixels
Height : 460 pixels
Display aspect ratio : 1.85:1
Original display aspect ratio : 1.85:1
Frame rate mode : Constant
Frame rate : 23.976 (24000/1001) FPS
Color space : YUV
Chroma subsampling : 4:2:0
Bit depth : 8 bits
Scan type : Progressive
Bits/(Pixel*Frame) : 0.268
Stream size : 1.58 GiB (81%)
Writing library : x264 core 142 r2479 dd79a61
Encoding settings : cabac=1 / ref=9 / deblock=1:-3:-3 / analyse=0x3:0x133 / me=umh / subme=9 / psy=1 / psy_rd=1.00:0.00 / mixed_ref=1 / me_range=24 / chroma_me=1 / trellis=2 / 8x8dct=1 / cqm=0 / deadzone=21,11 / fast_pskip=0 / chroma_qp_offset=-2 / threads=12 / lookahead_threads=1 / sliced_threads=0 / nr=0 / decimate=1 / interlaced=0 / bluray_compat=0 / constrained_intra=0 / bframes=6 / b_pyramid=2 / b_adapt=2 / b_bias=0 / direct=3 / weightb=1 / open_gop=0 / weightp=2 / keyint=240 / keyint_min=24 / scenecut=40 / intra_refresh=0 / rc_lookahead=60 / rc=crf / mbtree=1 / crf=13.0 / qcomp=0.60 / qpmin=0 / qpmax=69 / qpstep=4 / ip_ratio=1.40 / aq=1:1.00
Default : Yes
Forced : No
Color range : Limited
Color primaries : BT.601 NTSC
Transfer characteristics : BT.709
Matrix coefficients : BT.601

Audio
ID : 2
Format : AC-3
Format/Info : Audio Coding 3
Codec ID : A_AC3
Duration : 1 h 45 min
Bit rate mode : Constant
Bit rate : 448 kb/s
Channel(s) : 6 channels
Channel positions : Front: L C R, Side: L R, LFE
Sampling rate : 48.0 kHz
Frame rate : 31.250 FPS (1536 SPF)
Bit depth : 16 bits
Compression mode : Lossy
Stream size : 340 MiB (17%)
Title : Surround
Language : Thai
Service kind : Complete Main
Default : Yes
Forced : No

Text #1
ID : 3
Format : VobSub
Codec ID : S_VOBSUB
Codec ID/Info : Picture based subtitle format used on DVDs
Language : English
Default : No
Forced : No

Text #2
ID : 4
Format : VobSub
Codec ID : S_VOBSUB
Codec ID/Info : Picture based subtitle format used on DVDs
Language : Thai
Default : No
Forced : No

Text #3
ID : 5
Format : ASS
Codec ID : S_TEXT/ASS
Codec ID/Info : Advanced Sub Station Alpha
Compression mode : Lossless
Language : English
Default : Yes
Forced : No

Menu
00:00:00.000 : :Chapter 1
00:06:42.819 : :Chapter 2
00:14:48.929 : :Chapter 3
00:25:21.311 : :Chapter 4
00:34:44.707 : :Chapter 5
00:39:29.075 : :Chapter 6
00:51:28.835 : :Chapter 7
00:56:51.408 : :Chapter 8
01:07:22.747 : :Chapter 9
01:15:49.294 : :Chapter 10
01:26:54.042 : :Chapter 11
01:34:59.360 : :Chapter 12
Trailer