47
PUNTOS
Calificar
CALIFICA
Calificar
Califica y/o escribe un comentario sobre la película.
Comentarios en el foroFORO

The Tax Collector (2020)

David Cuevas es un hombre de familia que trabaja como un recolector de impuestos para una banda de mafiosos de Los Ángeles. A su lado va siempre su compañero Creeper, encargándose de que la gente pague o se enfrente a las consecuencias de no hacerlo. Sin embargo, una vieja amenaza regresa a la ciudad, poniendo en peligro todo lo que David ama en su vida.
Director David Ayer
Actores Bobby Soto, Cinthya Carmona, Shia LaBeouf, Jose Conejo Martin
Duración 95 min
Streaming (Servicio externo)
Grupo: FGT
Versión: BDRip x264 1080p
Tamaño: 8.6 GB
Video
ID : 1
Format : AVC
Format/Info : Advanced Video Codec
Format profile : [email protected]
Format settings : CABAC / 4 Ref Frames
Format settings, CABAC : Yes
Format settings, Reference frames : 4 frames
Codec ID : V_MPEG4/ISO/AVC
Duration : 1 h 34 min
Bit rate : 11.5 Mb/s
Width : 1 920 pixels
Height : 800 pixels
Display aspect ratio : 2.40:1
Frame rate mode : Constant
Frame rate : 23.976 (24000/1001) FPS
Color space : YUV
Chroma subsampling : 4:2:0
Bit depth : 8 bits
Scan type : Progressive
Bits/(Pixel*Frame) : 0.312
Stream size : 7.59 GiB (88%)
Title : The.Silencing.2020.1080p.BluRay.x264.DTS-FGT
Writing library : x264 core 148 r2748 97eaef2
Encoding settings : cabac=1 / ref=4 / deblock=1:-2:-2 / analyse=0x3:0x113 / me=umh / subme=9 / psy=1 / psy_rd=1.00:0.15 / mixed_ref=1 / me_range=16 / chroma_me=1 / trellis=2 / 8x8dct=1 / cqm=0 / deadzone=21,11 / fast_pskip=1 / chroma_qp_offset=-3 / threads=72 / lookahead_threads=3 / sliced_threads=0 / nr=0 / decimate=1 / interlaced=0 / bluray_compat=0 / constrained_intra=0 / bframes=3 / b_pyramid=2 / b_adapt=1 / b_bias=0 / direct=3 / weightb=1 / open_gop=0 / weightp=2 / keyint=250 / keyint_min=25 / scenecut=40 / intra_refresh=0 / rc_lookahead=50 / rc=2pass / mbtree=1 / bitrate=11500 / ratetol=1.0 / qcomp=0.60 / qpmin=0 / qpmax=69 / qpstep=4 / cplxblur=20.0 / qblur=0.5 / vbv_maxrate=31250 / vbv_bufsize=31250 / nal_hrd=none / filler=0 / ip_ratio=1.40 / aq=1:1.00
Language : English
Default : Yes
Forced : No

Audio
ID : 2
Format : DTS
Format/Info : Digital Theater Systems
Codec ID : A_DTS
Duration : 1 h 34 min
Bit rate mode : Constant
Bit rate : 1 509 kb/s
Channel(s) : 6 channels
Channel layout : C L R Ls Rs LFE
Sampling rate : 48.0 kHz
Frame rate : 93.750 FPS (512 SPF)
Bit depth : 24 bits
Compression mode : Lossy
Stream size : 1 020 MiB (12%)
Title : The.Silencing.2020.1080p.BluRay.x264.DTS-FGT
Language : English
Default : Yes
Forced : No

Text
ID : 3
Format : UTF-8
Codec ID : S_TEXT/UTF8
Codec ID/Info : UTF-8 Plain Text
Duration : 1 h 25 min
Bit rate : 29 b/s
Count of elements : 657
Stream size : 18.3 KiB (0%)
Language : English
Default : Yes
Forced : No

Menu
00:00:00.000 : en:Chapter 1
00:04:47.454 : en:Chapter 2
00:09:15.722 : en:Chapter 3
00:12:39.801 : en:Chapter 4
00:17:16.410 : en:Chapter 5
00:22:32.476 : en:Chapter 6
00:28:47.059 : en:Chapter 7
00:34:04.251 : en:Chapter 8
00:41:10.760 : en:Chapter 9
00:47:53.245 : en:Chapter 10
00:54:38.859 : en:Chapter 11
00:59:10.380 : en:Chapter 12
01:05:07.612 : en:Chapter 13
01:10:54.959 : en:Chapter 14
01:17:58.090 : en:Chapter 15
01:26:57.712 : en:Chapter 16

Subtitulos

Grupo: CMRG
Versión: BDRip x264 1080p
Tamaño: 8.2 GB
MEDIAINFO
Container = Matroska (mkv)
Duration = 01:35:15.667
Filesize = 8 GiB
Overall bitrate = 12.3 Mb/s
ViDEO
Codec info = AVC [email protected] | V_MPEG4/ISO/AVC
Resolution = 1920x1040
Display AR = 1.846 | 1.85:1
Bitrate = 9 000 kb/s
Framerate = CFR 24.000
Color space = YUV
Chroma subsampling = 4:2:0
Encoder = x264 - core 160 r3000 33f9e14
AUDiO
Codec info = DTS | A_DTS
Channels = 6
Bitrate = VBR 3 426 kb/s
Samplerate = 48.0 kHz
Language = English
Trailer