82
PUNTOS
Calificar
CALIFICA
Calificar
Califica y/o escribe un comentario sobre la pelĂ­cula.
Comentarios en el foroFORO

An American in Paris: The Musical (2018)

An American in Paris: The Musical is a movie starring Ashley Andrews, Sophie Apollonia, and Zoe Arshamian. Jerry Mulligan is an American striving to make it as a painter in Paris. Following an encounter with a dancer named Lise, the...
Director Christopher Wheeldon, Ross MacGibbon
Actores Ashley Andrews, Sophie Apollonia, Zoe Arshamian, Jane Asher
Duración 160 min
Streaming (Servicio externo)
Grupo: RARBG
Versión: WebRip x265 1080p
Tamaño: 2.2 GB
	
Video
ID : 1
Format : HEVC
Format/Info : High Efficiency Video Coding
Format profile : Main [email protected]@Main
Codec ID : hev1
Codec ID/Info : High Efficiency Video Coding
Duration : 2 h 18 min
Bit rate : 2 000 kb/s
Width : 1 920 pixels
Height : 1 080 pixels
Display aspect ratio : 16:9
Frame rate mode : Constant
Frame rate : 23.976 (24000/1001) FPS
Color space : YUV
Chroma subsampling : 4:2:0
Bit depth : 10 bits
Bits/(Pixel*Frame) : 0.040
Stream size : 1.94 GiB (90%)
Audio
ID : 2
Format : AAC LC
Format/Info : Advanced Audio Codec Low Complexity
Codec ID : mp4a-40-2
Duration : 2 h 18 min
Duration_LastFrame : -12 ms
Bit rate mode : Constant
Bit rate : 224 kb/s
Channel(s) : 2 channels
Channel layout : L R
Sampling rate : 48.0 kHz
Frame rate : 46.875 FPS (1024 SPF)
Compression mode : Lossy
Stream size : 222 MiB (10%)
Language : English
Default : Yes
Alternate group : 1
Encoded date : UTC 2020-08-20 14:33:12
Tagged date : UTC 2020-08-20 14:33:12

Subtitulos